<?xml version="1.0" standalone="no"?>
<!DOCTYPE svg PUBLIC "-//W3C//DTD SVG 1.1//EN" "http://www.w3.org/Graphics/SVG/1.1/DTD/svg11.dtd" >
<svg>
<metadata>
Created by FontForge 20090622 at Fri Feb 15 10:48:05 2019
 By ffonts
Copyright (c) 2019 by Khurasan. All rights reserved.
</metadata>
<defs>
<font id="Takota" horiz-adv-x="454" >
  <font-face 
    font-family="Takota"
    font-weight="400"
    font-stretch="normal"
    units-per-em="1000"
    panose-1="0 0 0 0 0 0 0 0 0 0"
    ascent="800"
    descent="-200"
    x-height="583"
    cap-height="755"
    bbox="-179.111 -314.042 2195 969.25"
    underline-thickness="50"
    underline-position="-50"
    unicode-range="U+000D-U+E000"
  />
<missing-glyph horiz-adv-x="243" 
 />
    <glyph glyph-name="noname" unicode="Takota" horiz-adv-x="2098" 
d="M2191 786q2 -1 2.5 -6t1.5 -9q-6 -3 -15 -3q-30 1 -60.5 2.5t-61.5 0.5q-66 -4 -130 -9l-130 -10q-12 0 -19 -1t-11 -4.5t-6.5 -10.5l-6.5 -19q-34 -131 -64 -260t-50 -262q-6 -35 -7 -71t-3 -71q-2 -8 2 -15q3 -20 0 -24.5t-23 -8.5q-20 -3 -33.5 5.5t-16.5 28.5
q-3 25 -5.5 49.5t-0.5 48.5q2 85 12.5 166t25.5 163q8 47 18 93.5t19 94.5q-20 -33 -44 -68.5t-41 -58.5q-16 -21 -28 -22.5t-23.5 2t-23.5 5t-28 -14.5q-51 -48 -82.5 -108t-48.5 -127q-8 -30 -10.5 -60t2.5 -60q2 -6 2 -11.5t2 -11.5q5 -17 9 -26t10 -10.5t14.5 4
t22.5 17.5q32 28 49.5 64.5t31.5 74.5q17 46 17.5 91.5t-18.5 91.5q-9 18 10 18q24 -2 42 -12t25 -36q6 -18 9 -32q5 -23 5.5 -47t-6.5 -47q-11 -50 -31 -94.5t-55 -80.5q-21 -21 -45 -34t-53 -16q-14 -2 -29 0.5t-29 10t-25.5 20.5t-17.5 32q-25 77 -13 155q2 11 3.5 22.5
t3.5 22.5l-4.5 -4.5t-3.5 -6.5q-21 -76 -8 -156q3 -11 4.5 -22.5t2.5 -22.5l1 -1q-18 12 -24.5 29t-11.5 37q-9 38 -6 76t13 76q17 68 48.5 126.5t86.5 103.5q29 25 63.5 37t73.5 3q29 -6 47 1t32.5 26.5t30 50t41.5 71.5q-20 -2 -38 -5t-36 -7l-108 -24q-11 -3 -20 -4
t-17 8q-9 12 -17 24t-7 28q1 17 20 20l176 32l36 4l37 4q21 0 27 21l23 67q5 11 11 15t17 -1q14 -5 28 -8t26 -11q16 -8 18.5 -15.5t-2.5 -25.5q-3 -12 -4 -18.5t1 -9t9 -3t19 -0.5q36 1 72 0.5t72 -0.5q16 0 31.5 1l32.5 2q4 0 7 -3q3 -18 21 -18q25 0 48.5 -0.5t46.5 -3.5
q11 -2 20.5 -6t18.5 -9zM408 -141l50 16t51 14q106 25 212.5 39t215.5 25q45 5 90.5 9t91.5 7q87 8 171.5 14t171.5 6q37 -1 73 -4t70 -14q14 -3 26 -8t25 -11q21 -15 14 -36q-6 -14 5 -24q9 -14 3.5 -23t-23.5 -17q-2 -1 -3.5 -1.5t-3.5 -2.5q-2 -4 -2 -8.5t-1 -9.5
q-5 -1 -9 -1q-1 1 -2.5 1.5t-3.5 2.5q-14 14 -33 18.5t-41 6.5q-70 8 -141 8.5t-142 -1.5q-262 -11 -519 -36q-46 -5 -90 -10.5t-88 -12.5q-22 -2 -43 -4.5t-43 -6.5q33 8 62 12q55 8 110.5 15t110.5 13q234 24 468 33l127 4t129 -3q26 -2 50 -4.5t49 -4.5q2 3 3 4
q-11 1 -20.5 3l-18.5 4q-70 8 -140.5 8.5t-141.5 -1.5q-163 -7 -323.5 -18.5t-320.5 -31.5q-55 -8 -108.5 -17t-106.5 -24q-8 -2 -14 -2q-3 12 -6.5 23.5t-8.5 21.5q-4 12 -0.5 18t18.5 11zM1240 336q8 3 6.5 8.5t-3.5 11.5zM441 -218q-8 -3 -17 -5l-1 1l9 3.5t9 2.5v-2z
M485 -206q1 1 5 1q-3 0 -5 -1zM159 174l1 -2l-1 -1v2v1zM588 707q5 -25 -0.5 -33.5t-30.5 -10.5q-44 -5 -86.5 -8t-87.5 -8q-8 -1 -16 -0.5t-16 -0.5q-2 0 -3 -1.5t-4 -2.5q3 -1 5 -2.5t4 -1.5q28 0 58 3q33 2 65.5 3l66.5 2q2 0 4 -0.5t4 -0.5q-2 -1 -4 -2.5t-4 -1.5
l-81 -8t-81 -6q-20 -1 -26 -21l-63 -240t-48 -243q-4 -26 -4.5 -51.5t-2.5 -51.5v-15.5t-3 -10.5q-9 -3 -19.5 -5t-18.5 0q-26 5 -33 33q-8 29 -6 57.5t2 56.5q0 8 -0.5 14t-1.5 12q0 -4 -0.5 -7t-0.5 -7v9.5t1 9.5q2 2 2 4q1 0 1 -1v2q0 13 3 24h-1q-2 0 -2 2
q0 -6 -0.5 -12t-0.5 -12l-4 13.5t0 12.5q8 58 14 116.5t15 116.5q5 27 14 52t17 51q0 -4 0.5 -7t0.5 -7q3 6 4 15h-5v-1q0 1 -1 1h6l12 33.5t11 33.5q2 8 -2.5 9.5t-10.5 1.5q-24 -2 -48 -5t-50 -5q4 2 7 5t7 3q23 4 45.5 7t45.5 8q2 0 5 2.5t5 4.5q-6 2 -10 2
q-48 -8 -95.5 -14t-95.5 -23q-18 -5 -28 13q-3 8 -7 16t-6 16q-6 22 0 32.5t27 18.5q52 18 105 28.5t108 16.5q72 6 144 9.5t144 9.5q19 2 30.5 -5t17.5 -26q2 -5 3.5 -11t3.5 -11zM169 216q0 2 0.5 2.5t0.5 1.5q-1 0 -1.5 -0.5t-2.5 -0.5q3 -3 2 -3q0 -1 1 0zM169 238
q0 2 1 3l-2 2l-1 -2q0 -1 2 -3zM213 501h-3l1 -3zM109 605q3 0 7 0.5t7 0.5q2 0 4 -0.5t4 -0.5q-2 -1 -4 -1.5t-5 -0.5q-2 1 -6 1t-7 1zM132 605l-1 -1v1h1zM151 143q1 1 2.5 2t2.5 2v1v-1q-1 -2 -2 -3t-2 -3h-1v2zM618 89l-2 29.5t-3 29.5q0 5 -3 13q-4 -2 -7 -4t-5 -6
l-40 -49.5l-40 -51.5q-23 -29 -53.5 -38t-66.5 -7q-30 2 -46.5 19t-19.5 39q-11 60 0.5 117.5t45.5 110.5q22 31 54 46.5t69 18.5q25 2 50.5 0t49.5 -13q3 -3 7.5 -3.5t7.5 -1.5q14 -2 16 9q6 46 12.5 91l13.5 92q2 25 -18 10l-52.5 -42t-51.5 -44q-16 -14 -30 -30.5
l-28 -32.5q-12 -14 -33.5 -17t-35.5 9q-2 1 -3 5.5t0 6.5q2 7 6 11.5t8 8.5q13 16 26.5 30t25.5 30q17 18 32 37t32 36q40 42 97 58q16 5 30 0t28 -18q11 -10 22.5 -18.5t26.5 -10.5q17 -3 21 -9.5t-1 -24.5q-7 -38 -16.5 -75.5t-15.5 -75.5l-15.5 -121t-14.5 -123
q-2 -14 -2.5 -27t4.5 -27q4 -20 -3.5 -35t-9.5 -32q0 -5 -6 -6q-19 -11 -38 -1t-23 33q-1 14 -1.5 27t-2.5 27h2zM643 588q-3 -3 -4 -5v1q1 1 1.5 2t1.5 2q2 -1 4 -1.5t4 -1.5q-3 3 -2 3h-5zM452 103q3 2 5 3t4 3l67 71.5l67 71.5q5 7 6 12q1 7 -4 15t-13.5 14t-18 8
t-15.5 -2q-12 -6 -23.5 -13.5t-20.5 -18.5q-26 -34 -37.5 -74t-19.5 -82q0 -2 1 -4zM430 113l-3 9q-1 -2 -3 -10q0 -2 1 -3.5t1 -4.5q1 3 2 5zM426 87h1l-1 2v-2zM1152 111q19 -10 25 -31q1 -2 -3 -6.5t-6 -4.5q-5 0 -8.5 2.5t-8.5 4.5l-138 59l-138 60q-17 7 -21 4.5
t-7 -22.5l-10 -63.5l-10 -63.5q0 -5 -0.5 -10.5t-0.5 -11.5q0 -12 -0.5 -18t-3.5 -9t-10 -3t-19 1q-20 2 -30 11t-14 29q-6 26 -7 52t2 53q1 23 1.5 45.5t2.5 45.5q3 74 9 148t25 147q8 31 17.5 61l19.5 59q2 8 7 15t10 13q3 4 9.5 5.5t8.5 -0.5q12 -11 26 -10.5t28 2.5
q19 2 25 -5t2 -27l-26.5 -136l-26.5 -136q-2 -11 -3.5 -22t-3.5 -23q11 5 22 9t21 9l110 56l109 57l6 2t5 2q3 1 9 -1v-4.5t-2 -4.5q-2 -4 -5.5 -6.5t5.5 -7.5q17 -9 18 -26.5t-14 -28.5q-26 -20 -55 -33l-85.5 -44.5l-86.5 -44.5q-6 -3 -11 -7.5t-10 -8.5l10 -8t11 -7
l110 -60zM765 81l10 70t10 75q-1 2 -1 5q-2 -2 -4.5 -5t-4.5 -5v-3q-5 -35 -8 -69.5t-7 -69.5q0 -2 0.5 -3t0.5 -3zM800 316q2 20 5 41l6 42q-4 -1 -7.5 -1.5t-3.5 -7.5l-6 -47.5l-6 -47.5q-1 -4 -0.5 -9t1.5 -10q2 5 3 10t3 10t2.5 10t2.5 10zM813 445q1 10 1.5 19.5
t0.5 18.5q-2 -9 -4.5 -18.5t-4.5 -19.5q-2 -5 -2 -9t-2 -9q-2 -8 1 -14.5t8 -13.5q1 12 1.5 23.5t0.5 22.5zM819 507q1 0 1.5 -0.5t1.5 -0.5v3h-1h-1q0 -1 -1 -2zM825 529q2 2 2.5 4t1.5 4q0 5 2 9q-3 -3 -6 -9q-2 -2 -1 -4t1 -4zM832 550q1 2 1 4t1 4q0 1 -0.5 2.5
t-0.5 3.5q0 -2 -1.5 -3.5t-1.5 -3.5q0 -3 2 -7zM1973 89l-2 29.5t-3 29.5q0 5 -3 13q-4 -2 -7 -4t-5 -6l-40 -49.5l-40 -51.5q-23 -29 -53.5 -38t-66.5 -7q-30 2 -46.5 19t-19.5 39q-11 60 0.5 117.5t45.5 110.5q22 31 54 46.5t69 18.5q25 2 50.5 0t49.5 -13q3 -3 7.5 -3.5
t7.5 -1.5q14 -2 16 9q6 46 12.5 91l13.5 92q2 25 -18 10l-52.5 -42t-51.5 -44q-16 -14 -30 -30.5l-28 -32.5q-12 -14 -33.5 -17t-35.5 9q-2 1 -3 5.5t0 6.5q2 7 6 11.5t8 8.5q13 16 26.5 30t25.5 30q17 18 32 37t32 36q40 42 97 58q16 5 30 0t28 -18q11 -10 22.5 -18.5
t26.5 -10.5q17 -3 21 -9.5t-1 -24.5q-7 -38 -16.5 -75.5t-15.5 -75.5l-15.5 -121t-14.5 -123q-2 -14 -2.5 -27t4.5 -27q4 -20 -3.5 -35t-9.5 -32q0 -5 -6 -6q-19 -11 -38 -1t-23 33q-1 14 -1.5 27t-2.5 27h2zM1998 588q-3 -3 -4 -5v1q1 1 1.5 2t1.5 2q2 -1 4 -1.5t4 -1.5
q-3 3 -2 3h-5zM1807 103q3 2 5 3t4 3l67 71.5l67 71.5q5 7 6 12q1 7 -4 15t-13.5 14t-18 8t-15.5 -2q-12 -6 -23.5 -13.5t-20.5 -18.5q-26 -34 -37.5 -74t-19.5 -82q0 -2 1 -4zM1785 113l-3 9q-1 -2 -3 -10q0 -2 1 -3.5t1 -4.5q1 3 2 5zM1781 87h1l-1 2v-2z" />
    <glyph glyph-name=".notdef" horiz-adv-x="243" 
 />
    <glyph glyph-name="NULL" horiz-adv-x="0" 
 />
    <glyph glyph-name="NULL" horiz-adv-x="0" 
 />
    <glyph glyph-name="nonmarkingreturn" unicode="&#xd;" horiz-adv-x="243" 
 />
    <glyph glyph-name="space" unicode=" " horiz-adv-x="243" 
 />
    <glyph glyph-name="E" unicode="E" horiz-adv-x="525" 
d="M543 683q2 -6 5.5 -11.5t3.5 -10.5t-4 -11.5t-9 -11.5q-6 -5 -13 8q-8 14 -19.5 14t-22.5 -2q-42 -8 -83 -17t-83 -17q-23 -5 -35 -18.5t-20 -35.5q-12 -33 -27 -65.5l-29 -64.5q-2 -5 -2 -8.5t-2 -8.5q5 0 9.5 -1t9.5 0l64.5 11.5t64.5 12.5q34 6 48.5 -2.5t28.5 -41.5
q3 -11 1.5 -16.5t-14.5 -8.5l-55.5 -14t-56.5 -16q-33 -8 -65 -19t-64 -20q-28 -10 -35 -39l-21 -73.5t-21 -72.5q-1 -5 -2 -9.5t-1 -8.5q0 -8 3.5 -11t9.5 1q17 8 33 16.5l31 16.5q48 26 98.5 42.5t103.5 27.5q10 2 20 2t19 -8q2 -5 5 -8.5t6 -7.5q-4 -2 -7.5 -5t-7.5 -5
l-69.5 -21t-69.5 -19q-15 -4 -18 -18q21 6 41.5 13.5t42.5 13.5q21 7 42 11.5t41 9.5q5 1 10 1h10q7 -2 7 -6t-1.5 -7.5t-3.5 -5.5t-5.5 -2.5t-6.5 -1.5q-73 -20 -141 -48.5t-135 -60.5q-16 -8 -32.5 -14.5t-33.5 -14.5q-32 -12 -52 15q-2 1 -2 3t-1 3q-14 6 -21.5 14.5
t-9.5 19t-0.5 22.5t4.5 25q15 52 27 105q1 4 -0.5 7.5t-1.5 7.5l2 -2l-2 2h2q5 16 10.5 31l11.5 30q1 5 -0.5 6t-7.5 10q-2 3 -2 8.5t2 10.5l37.5 103l37.5 103q3 8 7.5 17.5l8.5 17.5q5 11 7 21.5t-10 19.5q-2 2 -3 8.5t0 11.5q0 5 2 9.5t4 9.5q-5 -4 -10.5 -6.5
t-10.5 -5.5q-4 -2 -8.5 -3t-9.5 -3q2 7 1 13.5t2 10.5q14 14 31 22l60 25t62 21q42 11 85 19t85 20q24 6 43 2.5t34 -13.5t25.5 -24.5t17.5 -29.5zM57 316h-1v-1zM177 79q-7 0 -10 1q2 -1 9 -1q33 26 75 29q-44 9 -74 -29zM138 74q-5 -3 -11 -4.5t-11 -3.5q5 1 11 1.5
t11 1.5v5zM112 65l1 -1v1h-1zM94 54l-1 -2q1 0 1 -0.5t1 -0.5l2 1q-1 0 -1 1t-1 1h-1zM292 633q23 8 47 15l50 15q-28 3 -51.5 -5.5t-48.5 -16.5q-2 0 -3 -2t-1 -3q3 -3 7 -3zM470 674q5 2 8 7q-4 2 -7 2l-37.5 -9.5t-36.5 -9.5q18 2 36.5 4.5t36.5 5.5z" />
    <glyph glyph-name="F" unicode="F" horiz-adv-x="482" 
d="M630 752q5 -1 7.5 -3.5l4.5 -4.5q-2 -3 -9 -10q-2 -1 -3 -0.5t-3 -0.5q-5 -1 -12.5 -1t-9.5 -2q0 -4 -0.5 -3.5t-0.5 2t0.5 2t1.5 -2.5q1 -5 4.5 -8.5t5.5 -8.5q2 -6 0 -10.5t-10 -5.5q-76 -9 -160.5 -17.5t-159.5 -18.5q-11 -1 -17.5 -2t-10 -4.5t-5 -9.5l-4.5 -18
q-3 -10 -5 -24.5t-3.5 -30t-3.5 -30t-5 -24.5q-5 -16 14 -16q17 1 37 1.5t40.5 1.5t40.5 1.5t36 1.5q5 0 8 0.5t7 -0.5q2 0 3 -1.5t3 -2.5l-4 -2t-4 -1q-26 -3 -62 -4.5t-62 -3.5q-14 -1 -26.5 -3t-26.5 -4q-3 -1 -9 -7q3 -1 5.5 -2t4.5 0q18 1 40 2t44.5 2.5t44.5 2.5t40 3
q29 5 45.5 -12t12.5 -46q0 -2 -3 -6t-6 -5q-11 -2 -21.5 -3l-21.5 -2q-45 -5 -98.5 -9t-98.5 -8q-11 -2 -17.5 -7t-9.5 -16q-19 -77 -28 -154.5t-28 -155.5q-3 -11 -2.5 -23t0.5 -25q0 -12 -5.5 -16t-15.5 2q-8 6 -12.5 6t-9.5 -5q-26 -11 -45 -1.5t-24 36.5q-5 28 -2 54
q8 63 17 124l18 124q1 12 0.5 19t-17.5 8q-6 0 -12 5.5t-11 13t-7.5 15.5t-1.5 14q1 11 13 19q5 3 11 4t11 1q24 1 36.5 13t18.5 35q3 11 6 26.5t6.5 31.5l7 31t7.5 26q3 5 4 9.5t3 8.5q-6 0 -11.5 0.5t-10.5 -0.5q-10 -2 -19 -6t-19 -6q-4 -1 -8.5 1t-9.5 3q2 5 5 9.5
t6 6.5q11 11 25.5 16t29.5 9q7 2 13 10q-6 -2 -11 -1.5t-10 -1.5q-9 -5 -17 -11t-14.5 -10t-12 -3t-11.5 10q-2 3 -9.5 2.5t-14.5 -0.5q-3 1 -11 1q2 11 4 12q18 11 33 24.5t38 18.5q90 17 179 31t181 19q15 1 29 2.5t29 1.5q32 0 62 -1zM94 83q-3 -6 -3 -7q-1 -2 -0.5 -4.5
t0.5 -4.5q3 0 3 1v15zM92 25q1 3 1.5 5.5t0.5 5.5l-3 5q0 -4 -0.5 -7.5t-0.5 -5.5q0 -1 2 -3zM99 120v3l-1 -3h1zM137 660l-1 1q-4 0 -7 -1h8z" />
    <glyph glyph-name="G" unicode="G" horiz-adv-x="529" 
d="M514 439q-22 -94 -35 -187.5t-19 -190.5q0 -15 0.5 -30.5t11.5 -29.5h-1q-9 0 -11 6t-4 13q-9 35 -10 70.5t-1 70.5q2 37 6 71q-3 -2 -6.5 -3.5t-3.5 -3.5q-2 -44 -6.5 -87.5t3.5 -86.5q5 -31 18 -55q9 -19 -8 -25q-17 -7 -38 -1t-32 20q-14 19 -20 40.5t-9 44.5
q-1 7 -1 13.5t-2 14.5q0 1 -5 2t-7 0l-9.5 -15t-9.5 -13l-26 -30t-27 -29q-12 -12 -26.5 -18t-31.5 -2q-14 3 -28 2.5t-28 -2.5q-62 -11 -102 44q-24 35 -34 73t-10 80q3 243 147 435q29 39 64.5 69t81.5 44q14 5 30 7.5t29 -0.5q26 -5 51.5 -13.5l50.5 -17.5q7 -4 13 -10.5
t10 -13.5q3 -3 2.5 -9t-0.5 -11q-5 1 -9.5 1.5t-8.5 0.5q-7 2 -8 1q-8 -11 -17.5 -8.5t-16.5 7.5q-5 5 -13 10t-16.5 8t-16.5 3.5t-12 -2.5q-43 -29 -78.5 -72.5t-63 -97t-46.5 -113t-28.5 -120.5t-9 -120t12.5 -111q39 24 75.5 66t68 89.5t57.5 95l46 82.5q3 3 -1.5 1
t-10.5 -5t-11 -5t-3 2l-1 1l1 -2q-4 2 -8 3t-9 2l18.5 19l18.5 19q-23 1 -36 -13.5l-27 -29.5q-7 -8 -17 -10.5t-19.5 -0.5t-18 8t-12.5 15q-9 20 6 32q5 4 9 8.5t9 6.5l71 38t73 35q25 10 45 -2t30 -39q0 -5 1 -7q9 -14 10 -17.5t-1 -14.5zM501 449q-2 -2 -2.5 -2t-1.5 -1
q1 0 1 -0.5t1 -0.5q0 1 1 1.5t1 2.5zM118 246q-2 -5 -5 -7q-1 -6 -5 -11q2 2 4.5 3.5t4.5 5.5q1 2 0.5 4t0.5 5zM108 228q0 -2 0.5 -3.5t0.5 -2.5q2 -6 2 -10q1 1 2.5 1t2.5 1q-1 2 -2 4.5t-3 4.5q-1 1 -1.5 2.5t-1.5 2.5zM118 147q0 4 -0.5 7t-1.5 7q1 1 3 1
q-2 6 -4.5 11.5t-4.5 10.5q0 -6 -0.5 -12t-0.5 -11t4 -13q2 -3 4 -7q1 3 1 6zM121 108l4 -4q-3 7 -3 11q-1 0 -1.5 0.5t-1.5 0.5q1 -2 1 -3.5t1 -4.5zM121 279q1 7 4 13q0 1 -1.5 2.5t-3.5 4.5v-16q0 -1 0.5 -1.5t0.5 -2.5zM131 333h-1v-2zM264 89q0 -1 1 -1zM391 431
q0 1 -1 1q1 0 1 -1zM481 384l-4 2q0 -2 -0.5 -3.5t-0.5 -3.5q2 4 5 5zM454 276q-3 0 -3 -1q-2 -8 -3 -16t-1 -16q0 -2 4 -8q0 3 1 5l2 4v32zM456 292q4 6 4 8q4 17 6.5 33.5t5.5 33.5q-5 -17 -9 -33l-8 -33q-1 -2 0 -4t1 -5zM346 382q-1 0 -3 2q4 1 8 5q-2 -2 -3 -3.5
t-2 -3.5zM351 389q1 3 2 3h1zM488 9l1 -1l-1 -1v2z" />
    <glyph glyph-name="H" unicode="H" horiz-adv-x="538" 
d="M591 691q2 -1 2 -5t-1 -6l-42.5 -155.5t-39.5 -156.5q-22 -87 -37 -174t-16 -178q0 -12 -4.5 -18t-16.5 -6h-3q-22 -2 -36.5 0.5t-23 10.5t-12 22t-3.5 36q0 62 8.5 121t19.5 119q4 21 9 41.5l10 40.5q2 14 -1 17t-17 -1l-67 -22t-68 -21l-31 -11.5t-32 -10.5
q-18 -6 -21 -25q-14 -60 -25.5 -119.5t-16.5 -122.5q0 -11 1 -22t3 -23q2 -16 -12 -16q-13 -2 -26 -2.5t-25 2.5q-14 2 -20 12.5t-8 21.5q-3 15 -3.5 30.5t-2.5 32.5q4 37 7.5 74t8.5 75q2 12 -0.5 18.5t-16.5 7.5q-3 0 -7.5 1.5t-8.5 3.5q-13 6 -13.5 14.5t12.5 13.5
q9 3 14.5 9t10 12.5t9.5 13t12 10.5q4 2 4.5 8t1.5 12q17 79 37 156.5t49 153.5q4 13 10 25.5l11 23.5q8 20 28 16q10 -2 19 -3.5t19 -5.5q13 -6 20 -10.5t9.5 -10t1 -14t-5.5 -22.5l-37.5 -136.5l-35.5 -137.5q-5 -15 -1.5 -18.5t17.5 1.5l99 30l99 29q19 4 26 25l23 74
t23 75q7 18 15.5 35l16.5 34q6 15 18.5 17.5t22.5 0.5q12 -2 21.5 -8.5t18.5 -14.5zM28 329q-5 -2 -7.5 -4.5t-6.5 -4.5v1q4 2 6.5 4t7.5 4q0 1 0.5 1.5t0.5 2.5q0 -2 -0.5 -2.5t-0.5 -1.5zM14 320q-1 0 -1 0.5t-1 0.5h2v-1zM12 321h-3h1h2z" />
    <glyph glyph-name="I" unicode="I" horiz-adv-x="302" 
d="M396 702q10 -15 6.5 -26t-20.5 -13q-20 -2 -39.5 -5.5t-40.5 -4.5q-30 -1 -44.5 -14.5t-18.5 -45.5q-13 -90 -29.5 -177.5t-30.5 -176.5q-6 -37 -9.5 -75t-7.5 -75q-2 -10 1.5 -16.5t17.5 -7.5q10 0 20 -2.5t20 -5.5q18 -5 32 -20q5 -6 7.5 -14t7.5 -16q-8 -3 -14 -5
t-14 -2q-44 2 -86.5 0t-83.5 -11q-1 -1 -5 -1h-3q-8 15 -19.5 17t-22.5 7q-7 4 -12.5 13.5t-7.5 18.5q-2 10 4 17t17 9q11 4 21.5 5.5t22.5 2.5q10 1 15 5t4 15q0 11 1 21l2 21q3 47 6.5 94t7.5 95q2 34 7.5 65.5t10.5 65.5q3 32 8.5 65.5l10.5 65.5q1 4 1 6.5t1 6.5
q0 8 -2.5 12t-13.5 3q-18 -1 -37 0q-8 1 -14.5 4t-2.5 15q1 1 -1.5 3.5t-4.5 2.5q-16 2 -24 13t-12 25q-2 15 4.5 23.5t23.5 15.5q54 20 113.5 26t118.5 8q8 -1 13 -1h10q10 -1 18.5 -1.5t17.5 -0.5q-9 -1 -17 -1.5t-16 -1.5q-3 0 -7 -4q4 -2 5 -2q8 -2 14 -2
q23 2 39.5 -8.5t30.5 -30.5z" />
    <glyph glyph-name="J" unicode="J" horiz-adv-x="460" 
d="M575 748q4 2 7.5 -5t-3.5 -12q-6 -5 -11.5 -8.5l-13.5 -8.5l-56 -28.5l-57 -29.5q-8 -4 -12 -8t5 -15q6 -8 8.5 -18.5t2.5 -21.5q2 -48 -3.5 -93.5t-15.5 -91.5q-17 -72 -38 -141t-50 -138q-20 -46 -47 -84q-17 -24 -39 -38.5t-52 -17.5q-20 -2 -40.5 -5.5t-41.5 -1.5
q-47 1 -80 33t-38 80q-2 29 2 58t12 57q8 35 20.5 68t32.5 63q10 17 30.5 23.5t36.5 -1.5q21 -10 11 -43v-1q-7 -16 -12.5 -32t-10.5 -33l1 4v-2h-1q-2 -5 -3.5 -9.5t-3.5 -9.5h13q0 -32 -0.5 -63.5t-0.5 -63.5q0 -8 3.5 -17t5.5 -17q3 -7 7.5 -7.5t8.5 6.5q9 18 19 36
t17 37l29 79.5l28 81.5l38.5 125t29.5 128q2 8 2 13q2 16 -0.5 18t-17.5 -4q-36 -16 -74 -25.5l-77 -18.5q-7 -2 -18 1t-22 9t-20.5 13t-12.5 14q-5 11 0 22t18 15q19 10 38.5 17.5l39.5 15.5l159.5 65l159.5 65q15 6 24 9t15 1t11 -9.5t13 -21.5q5 -6 8.5 -11.5t15.5 -1.5z
M103 76q1 -5 5 -8.5t7 -8.5q-7 26 -8 52.5t1 52.5q2 19 3.5 35t2.5 33q-14 -38 -18 -77t7 -79zM117 56q-1 0 -1 1v-2zM406 637q-2 -2 -6 -3.5t-4 -3.5q2 -6 3.5 -11.5t3.5 -11.5q2 9 4 21q2 2 1 4.5t-2 4.5zM368 367l-2 2q1 -2 1 -4.5t1 -4.5v7zM354 312q1 3 1 5q0 -1 -1 -1
v-4zM361 345q2 6 4 9q0 1 2 3q-4 0 -6 -2t-1 -5t1 -5zM375 402q1 1 1 3v3q-3 -3 -3 -4t1 -1zM383 437q0 2 0.5 4.5t0.5 4.5q-1 3 -3 7q0 -2 -0.5 -4.5t0.5 -4.5q0 -1 2 -7zM381 454q8 0 9 4.5t1 10.5q0 2 -0.5 3t-0.5 2q-2 -1 -5 -4q-2 -4 -2.5 -8t-1.5 -8zM398 502
q4 23 6.5 45.5t6.5 45.5q0 2 -3 5t-5 8q-2 -26 -6 -51.5t-7 -51.5q0 -2 2 -6q1 2 2.5 2.5t3.5 2.5zM135 261q-1 -7 -3 -12t-4 -11q-2 4 -2.5 8.5t-2.5 9.5q1 3 4 6q4 2 6 7q2 -7 2 -8zM128 238q0 -1 1 -1h1h-2v1zM145 319v1q4 0 7 -0.5t8 -0.5q2 4 2.5 7t2.5 5q0 2 -0.5 3
t-0.5 2q0 -1 0.5 -1.5t0.5 -1.5v-2v2v-2q-2 -2 -2.5 -5t-2.5 -7h-15z" />
    <glyph glyph-name="K" unicode="K" horiz-adv-x="550" 
d="M698 643q10 -23 -9 -37q-20 -15 -37.5 -31t-37.5 -30q-85 -57 -174.5 -105t-186.5 -89q-14 -5 -25.5 -14.5t-30.5 -11.5q-6 0 -9 -4.5t-3 -10.5t3.5 -12.5t9.5 -10.5l84 -55l84 -55l36 -24.5t38 -24.5q36 -24 52 -58q3 -8 -0.5 -11.5t-12.5 -0.5q-11 3 -21 8.5l-21 11.5
l-101.5 63.5l-100.5 63.5q-11 8 -22 13.5t-21 11.5q-20 12 -23 -8q-2 -22 -6 -44t-5 -44q-5 -31 -8 -60.5t-8 -60.5q-1 -11 -3 -17t-6 -9.5t-11.5 -4.5t-20.5 -2h-9.5t-9.5 2q-27 1 -36.5 10t-6.5 33q7 60 15 118.5l16 117.5q3 9 -0.5 14.5t-11.5 11.5q-18 11 -33 24.5
t-23 33.5q-5 20 -2 25.5t22 12.5q19 5 36.5 12t35.5 17q8 4 12 13.5t6 18.5q23 78 41 156.5t32 158.5q2 17 5.5 18t19.5 -8q6 -3 12.5 -5.5t12.5 -4.5q19 -6 24 -11.5t7 -24.5l-10 -65.5t-13 -66.5q-4 -26 -9.5 -52.5t-10.5 -53.5q-2 -5 0 -12q4 2 9 2t7 3l9 15t6 15
q8 30 15 60.5l14 60.5q1 4 6 9q0 -2 1 -5.5t0 -5.5q-5 -30 -11.5 -60.5l-12.5 -60.5q0 -4 1 -7l2 -6q3 1 5.5 1t4.5 1l124 67l122 67q26 15 49 32.5t48 34.5q8 6 16.5 6t19.5 -7q16 -11 24 -24.5z" />
    <glyph glyph-name="L" unicode="L" horiz-adv-x="313" 
d="M349 110q8 4 18 3.5t19 -0.5q1 -14 -8.5 -15.5t-16.5 -5.5q-67 -29 -127.5 -66t-117.5 -77l-16 -12.5t-19 -11.5q-4 -2 -10.5 -1t-11.5 1q2 5 2 9v9q1 2 1 5t1 6q-4 -1 -7.5 -0.5t-7.5 -1.5q-11 -6 -19 -16q-21 -17 -42 -3q-11 8 -12 16.5t8 22.5q4 5 7.5 12t2.5 13
q-9 54 -2.5 106t12.5 106q15 126 36 248.5t50 243.5q6 20 11.5 31.5t15 16t24.5 2t38 -9.5q32 -12 42.5 -26.5t5.5 -46.5q-9 -52 -20 -103t-20 -103l-33 -182.5l-33 -182.5q0 -3 -1 -6t-1 -5q-2 -17 2.5 -20.5t21.5 2.5l52.5 20l53.5 21q7 3 15.5 6t16.5 7q5 1 8 -0.5
t8 -3.5q-4 -2 -7.5 -4.5l-7.5 -5.5h1q-22 -14 -43.5 -25.5t-44.5 -25.5l-38 -25.5l-37 -24.5q-2 -1 -2 -4.5t-1 -5.5q8 0 10 1l54.5 32t54.5 30t56.5 26.5t57.5 23.5z" />
    <glyph glyph-name="M" unicode="M" horiz-adv-x="622" 
d="M646 737q3 -11 1 -27q-8 -54 -17.5 -106t-15.5 -105q-11 -83 -18 -164t-15 -163q-4 -42 -4 -82.5t5 -80.5q6 -18 -14 -25q-38 -10 -50.5 -3.5t-17.5 44.5q-3 14 -3.5 28t-1.5 28q-1 17 -0.5 34t0.5 35q2 88 10.5 174t23.5 173q3 20 9.5 40t11.5 40q2 7 3 13.5t3 13.5
q0 2 -1.5 3t-1.5 3q-3 0 -5 -2q-8 -13 -14 -20q-54 -80 -96.5 -163t-77.5 -173q-8 -16 -18 -26l-21 -22q-1 -1 -2.5 -2t-2.5 0q-13 4 -29 11q-5 -10 -12 -13.5t-15 2.5t-14.5 15t-10.5 20l-10 53l-10 54q-2 17 -3 35t-3 35q0 2 -1.5 5.5t-2.5 6.5q-2 -2 -4 -4.5t-4 -6.5
l-22.5 -79.5t-20.5 -81.5q-11 -42 -20 -84.5l-19 -85.5q-10 -38 -41 -39h-6q-12 8 -23.5 11t-25.5 -5q-5 -4 -12.5 7t-6.5 22l2 42.5t5 43.5q20 143 64.5 275.5t110.5 260.5q2 4 3 8q14 19 21 -1q5 -12 10.5 -11t8.5 8q7 14 17 13t18 -6q11 -5 19.5 -10t10.5 -21
q10 -85 13 -167.5t4 -167.5q0 -8 2 -11q2 -5 6 -6q0 -1 1.5 0.5t1.5 3.5q6 12 11.5 24.5t10.5 25.5q42 97 94 185.5t113 173.5q8 12 22 17.5t29 4.5t28.5 -8t19.5 -20zM279 233q1 3 2 5t1 4q0 4 -0.5 7.5t-0.5 8.5q-5 46 -9.5 94t-10.5 101v118q0 3 -1 5.5t-2 4.5
q-2 -2 -4.5 -4t-2.5 -5q-2 -11 -4.5 -23t-1.5 -25l10.5 -122.5l11.5 -123.5q1 -9 2.5 -19t3.5 -19q0 -2 2 -3t4 -4z" />
    <glyph glyph-name="N" unicode="N" horiz-adv-x="585" 
d="M563 609q24 -9 32 -19.5t4 -35.5q-5 -38 -11 -75t-13 -74l-36.5 -191l-36.5 -191q-2 -10 -6.5 -16.5t-16.5 -8.5q-18 -4 -28.5 -5.5t-18 1.5t-14 11.5t-17.5 24.5l-19 31t-20 31q-2 4 -6.5 6t-8.5 5q13 -26 26.5 -49.5l27.5 -46.5q1 -6 -1 -10q-3 1 -6 1t-4 2l-18.5 25
t-14.5 26l-56 118.5l-54 119.5q-19 42 -34.5 84.5t-32.5 84.5q-2 6 -2 12v12t-2 11.5t-8 10.5q-3 2 -7 8q-1 -3 -3.5 -5t-2.5 -4q-2 -14 -3.5 -27.5t-3.5 -26.5l-21 -195.5l-21 -195.5q-2 -17 -0.5 -33.5t4.5 -33.5q2 -9 2 -15t-9 -8q-11 -5 -21.5 -2t-15.5 11
q-5 12 -9.5 25t-6.5 27q-2 26 -2 53v53q0 2 -1 6t-2 6q-2 -2 -3.5 -5t-1.5 -7l-3 -135q-1 -5 -0.5 -8.5t-0.5 -7.5q-1 -6 -8 -9q-2 0 -6.5 2.5t-5.5 5.5q-4 10 -7 20.5t-4 21.5q-3 27 -4 54.5t0 54.5q1 103 5 204.5t21 202.5q7 42 17.5 83l20.5 82q2 8 5.5 15.5t6.5 15.5
q2 4 5 8t5 3q13 -3 25.5 -2.5t24.5 0.5t24 -3t24 -12q10 -9 6 -20q-5 -11 -3 -20t9 -19q8 -13 12 -27t10 -28l28.5 -70l29.5 -69v-2v3l34.5 -93.5l35.5 -92.5q11 -29 24.5 -56.5l26.5 -56.5q2 -4 4.5 -6.5l5.5 -5.5q1 4 3 6.5t3 6.5l15.5 128.5t17.5 126.5q3 25 9.5 48.5
l12.5 46.5q0 5 4 9q4 -6 4 -11q5 -23 4.5 -44.5t-8.5 -42.5q8 -4 11 -0.5t4 10.5q6 29 11 56t12 56q1 5 2 9.5t2 10.5q4 24 13.5 28.5t34.5 -3.5zM49 175q0 5 -0.5 8.5t-0.5 8.5q-3 -3 -3 -7v-17q2 0 2 -1l1.5 4.5t0.5 3.5zM50 213v1l-2 4q-1 -2 -3 -4q1 -1 2 -1t2 -1z
M51 238q-1 0 -1 1l-2 -2l1 -2q3 0 3 2zM52 279q1 2 3 4l-2 6q-3 -3 -3 -2q-1 -3 2 -8zM59 360l-1 3v-3h1zM265 341q0 2 0.5 4.5t-0.5 4.5q-6 17 -12.5 33.5t-12.5 33.5q-32 87 -61 174q-1 6 -5 14q-2 -5 -3.5 -7t-1.5 -4q2 -14 2 -28t4 -28q16 -50 36 -95q11 -25 22.5 -48.5
l23.5 -47.5q1 -2 3.5 -3t4.5 -3zM306 208h-2l1 -3zM313 186q1 3 2 4l-2 2v-6zM328 166l-6 6q0 -1 -2 -1q-1 0 -1 -1q3 -2 5 -2.5t4 -1.5v-6v6zM457 277l-3 1l2 -2zM452 308q2 -6 2 -11q0 5 -2 11q2 5 4 9.5t4 10.5v1v-1q-2 -6 -4 -10.5t-4 -9.5zM466 354q13 12 2 30
q0 -8 -0.5 -15t-1.5 -15zM469 386q12 13 13 25t-9 29q-2 -13 -2.5 -26.5t-1.5 -27.5zM462 547l1 -4h-2z" />
    <glyph glyph-name="O" unicode="O" 
d="M465 558q-4 -34 -5.5 -67.5t-7.5 -67.5q-16 -94 -46 -180.5t-87 -165.5q-11 -15 -24 -28.5l-27 -27.5q-29 -24 -63 -18q-19 5 -36.5 1t-34.5 -10q-86 -31 -119 53q-13 30 -13.5 61t1.5 63q5 88 22 171.5t49 166.5q20 56 51 103q12 19 22 30t22.5 15t29.5 3t44 -4
q6 -1 11.5 -2.5t11.5 -2.5q16 -5 20 -2t-1 17q-8 19 -15 37.5t-27 28.5q-3 2 -6 6t-6 9q-5 6 -2 12t13 6q26 1 52.5 -1t51 -10.5t44.5 -25.5t32 -47l13.5 -32t11.5 -32q5 -15 7 -30t6 -29h5zM397 600l-1 -1q0 -2 0.5 -2.5t0.5 -1.5v5zM391 627q0 4 1.5 6.5t-0.5 4.5
q-1 4 -3.5 6t-4.5 5q1 -4 1.5 -6.5t1.5 -5.5q1 -2 1.5 -5t2.5 -5zM384 652v-1v1zM141 87q-11 88 1 173q10 85 27 167t53 161q2 2 1.5 5.5t-0.5 6.5q-3 -2 -6.5 -4t-5.5 -5q-15 -24 -27 -51q-29 -72 -45 -146.5t-29 -150.5q-5 -34 -7 -68.5t-5 -69.5h2l4 -19.5l4 -18.5
q2 -5 5 -9t6 -9q5 5 9.5 7.5t6.5 7.5t4 11t2 12zM168 141q0 -5 2 -11l4 -12q5 5 9.5 8.5t7.5 8.5q48 80 74.5 165t37.5 176q3 24 3.5 48t1.5 48h-2q-1 14 -6 28q-1 5 -3.5 8t-4.5 7l-9 -4.5t-7 -5.5q-10 -16 -18.5 -32t-14.5 -33q-38 -97 -54 -196.5t-21 -202.5zM300 117
q38 65 60.5 134t36.5 141q8 44 11.5 86t-1.5 86q-2 -3 -5 -5.5t-3 -7.5q-1 -7 0.5 -14t1.5 -14q-7 -91 -33.5 -177t-69.5 -169q-19 -37 -41.5 -72t-48.5 -67q-3 -2 -4 -6t-3 -9h10t10 3l19.5 14t17.5 16l22 29t20 32z" />
    <glyph glyph-name="P" unicode="P" horiz-adv-x="539" 
d="M613 581q6 -16 3 -30.5t-11 -27.5q-18 -29 -41 -52.5t-51 -43.5q-42 -29 -86.5 -48.5t-92.5 -38.5q-40 -15 -80 -28.5l-80 -26.5q-8 -3 -14.5 -7t-9.5 -14l-20 -100t-11 -104q0 -11 4 -23t6 -24q2 -9 -1 -14t-11 -2q-8 2 -17.5 7t-12.5 12q-6 9 -10.5 20.5t-6.5 22.5
q-5 43 -1 85.5t9 84.5q0 9 0.5 17.5t1.5 16.5q-2 -2 -4 -3t-2 -4l-10.5 -92t-10.5 -94q-2 -9 -0.5 -19t4.5 -19q3 -11 -1.5 -16t-9.5 -9q-1 -3 -7.5 0.5t-11.5 5.5q-26 21 -21 51q-1 34 -1 68t4 69q9 92 27 181t50 175q2 2 1 6t0 7q-3 -2 -7 -2.5t-7 -2.5q-8 -8 -16.5 -14
t-16.5 -14q-5 -6 -9.5 -12t-13.5 -1q-10 5 -18.5 12.5t-13.5 17.5q-4 6 -3.5 13.5t-7.5 12.5q-2 1 -2 7.5t2 8.5q5 10 10.5 19.5t13.5 17.5q26 24 57 40.5t65 30.5q72 29 147 39t155 -4q35 -5 68 -16.5t59 -39.5q21 -22 37 -48t27 -54zM91 311q-16 -19 -10 -44q2 11 4.5 22
t5.5 22zM91 312q-1 3 -1 9q0 -6 1 -9zM108 408h-1l1 -2v2zM429 702q-1 0 -2 -1l1 -1h3zM282 704q-3 0 -6 -3q2 -1 3.5 -2.5t3.5 -1.5q18 2 36 3.5t36 3.5q8 0 16.5 0.5t16.5 1.5q-8 1 -17.5 2t-17.5 2h-3v2l-34.5 -4zM212 369q8 3 10 7t3 10q-8 -3 -18 -9q-6 -3 -12.5 -7.5
t-13.5 -7.5q8 2 15.5 3.5t15.5 3.5zM231 386q4 0 8 0.5t8 0.5l-1 2zM516 603q19 20 16 27.5t-31 15.5q-54 17 -107 17.5t-106 -8.5q-17 -2 -26.5 -10t-12.5 -25q-14 -42 -26 -85l-24 -86q-3 -11 -4 -21t-3 -21q2 1 5 0.5t5 0.5l122 65t120 67q20 11 38 27.5t34 35.5z" />
    <glyph glyph-name="Q" unicode="Q" horiz-adv-x="522" 
d="M505 588q-2 -74 -26 -141.5t-60 -130.5q-12 -22 -16 -42.5t5 -44.5q14 -40 25.5 -79t25.5 -80q5 -14 15 -27.5l20 -26.5q8 -11 6.5 -19.5t-14.5 -11.5q-23 -5 -40 -7t-31.5 1.5t-27 15.5t-24.5 35q-11 21 -20 43t-19 44q-9 23 -13 23.5t-20 -16.5q-21 -24 -44 -46.5
l-46 -45.5h-25l-2.5 -5t-2.5 -6h4q0 3 0.5 6t0.5 5h25q-18 -26 -37.5 -28t-43.5 17l-32.5 27.5t-37.5 21.5t-30.5 27.5t-13.5 40.5q-8 44 -4 86t14 84q15 65 41 124.5t65 112.5q24 31 50.5 57.5l53.5 55.5q22 23 53 14l33 -11.5l33 -11.5q13 -5 16 -14t0 -21q-5 -26 -28 -21
q-14 2 -21.5 -5t-14.5 -17q-42 -56 -71.5 -119t-49.5 -132q-14 -45 -20.5 -92.5t-4.5 -96.5q1 -6 3.5 -13l4.5 -13q5 3 10 6.5t9 8.5l36 46t38 46q22 23 26.5 50t-3.5 58q-5 21 -8.5 42.5t-8.5 43.5q-2 10 -1 15q1 3 4 6l5 5q2 -2 4.5 -3.5t2.5 -3.5q2 -13 7.5 -16t19.5 2
q10 3 23.5 -0.5t24.5 -7.5q18 -7 24 10q26 57 40.5 115t7.5 121q-1 14 -7 27.5t-11 27.5q-3 6 -7.5 11t-6.5 10q-11 22 12 22q35 0 60.5 -18t35.5 -53q11 -44 9 -88zM154 572h3l-1 2zM53 281h7q-2 4 -3 7t-2 7q-2 -4 -3 -6.5t-2 -5.5q-8 -38 -11 -76.5t5 -77.5q2 -8 5.5 -16
t6.5 -16q0 8 -0.5 16t-0.5 16q0 4 -1 7.5t-1 8.5v136zM62 316h-2l1 -2zM69 346v5l-2 -4zM76 377h-2l1 -3zM140 543l-1 3v-3h1z" />
    <glyph glyph-name="R" unicode="R" horiz-adv-x="629" 
d="M233 207q-6 -2 -9.5 -2.5t-5.5 -1t-3 -2.5t-2 -8q-2 -13 -4.5 -33.5t-4.5 -42.5t-4.5 -43t-3.5 -34q-2 -4 -3.5 -8.5t-3.5 -9.5q-5 5 -10.5 8t-7.5 8q-2 8 -2 18.5t-2 20.5q0 2 -2.5 3t-4.5 3q-1 -2 -2 -3t-1 -3q1 -9 1.5 -17.5t1.5 -18.5q1 -17 -3.5 -21t-21.5 -3
q-22 1 -35.5 4.5t-20.5 11.5t-8.5 22t0.5 37q7 71 14.5 126t17 102.5t21 92.5t26.5 96q1 4 1 7.5v6.5q-4 -1 -7 -1t-6 -2q-7 -7 -13 -14.5t-13 -14.5q-9 -14 -18.5 -17t-25.5 2l-15 5.5t-15 6.5q-28 8 -36.5 29t7.5 44q14 20 31.5 39.5t37.5 34.5q69 53 147.5 83.5
t165.5 41.5q49 7 95.5 -4t89.5 -31q18 -9 31.5 -31t21 -48t7.5 -52t-9 -43l-26 -45t-25.5 -39.5t-30 -35.5t-38.5 -34l-84.5 -62.5l-86.5 -62.5l-7 -4.5t-7 -6.5q-2 -2 -2 -6.5t2 -6.5q7 -5 12.5 -8t11.5 -8l93.5 -58.5l90.5 -59.5q11 -7 21 -15l20 -16q23 -19 8 -41
q-6 -8 -8 -16.5t3 -18.5q3 -5 0.5 -12.5t-3.5 -14.5q-6 2 -13.5 3t-12.5 5q-49 29 -91.5 62.5t-91.5 62.5q-14 7 -28.5 19t-30.5 24t-31.5 22t-30.5 14q-3 1 -4.5 6.5t-3.5 10.5l-1 1zM196 407q-3 -3 -4 -3q2 0 2 1t1 1h1h-1v-2q0 2 0.5 2t0.5 1zM219 484l-1 1h2q3 2 5 8
q0 -2 -2 -4q-1 -1 -2 -1.5t-2 -1.5v-2zM187 349q-2 -1 -3 -1t-3 -2t-2 -3t-1 -2v-1q0 -1 0.5 -1t0.5 -1q1 4 4 7l4 4q1 1 1 4q0 -1 -0.5 -2t-0.5 -2zM261 565q-9 0 -13.5 -3t-6 -7.5t-2.5 -10t-3 -9.5q0 -1 1.5 -2t2.5 -2q4 5 6.5 11.5t6.5 11.5q4 8 8 12l-3 1q0 -2 3 -2z
M251 372q3 3 11 7q34 19 76.5 46t83 55.5t73.5 56t48 46.5q23 29 19.5 48t-21.5 29q-17 10 -54 7.5t-75.5 -14.5t-70 -31t-38.5 -42q-6 -19 -13 -44.5l-14.5 -53l-14.5 -54.5t-12 -48zM172 135l-1.5 7.5t-0.5 4.5q-1 -3 -1.5 -7t-1.5 -7q0 -2 0.5 -3.5t0.5 -3.5q2 2 2.5 4.5
t1.5 4.5zM255 229l-2 1q1 -1 1 -2q1 0 1 1zM192 382q0 1 -1 2t-1 3q0 -2 -0.5 -3t-0.5 -2h3z" />
    <glyph glyph-name="S" unicode="S" horiz-adv-x="425" 
d="M241 523q7 12 12.5 24l10.5 23q3 8 3.5 17t1.5 17l-65 -78t-56 -84q-8 -17 -6 -21.5t21 -5.5q35 -2 69 -8.5t66 -20.5q30 -14 49.5 -36.5t31.5 -49.5q14 -26 8 -53.5t-21 -51.5q-11 -19 -25 -36.5t-27 -35.5v1v-1l-1 -1q-1 -1 -1 -2q0 -2 1 -2.5t1 -1.5t1 -1h-1
q-89 -66 -192 -105q-26 -11 -53 -14t-54 7q-5 3 -8.5 6.5t-7.5 6.5q3 4 5.5 8.5t7.5 6.5q5 4 11 5t12 3q9 2 12 6t-11 10q0 1 1.5 5t3.5 6q19 13 38.5 24t36.5 24l64 49.5t60 51.5q17 15 27 35l21 40q8 10 6 20q-1 5 -5 9t-6 10q-4 -4 -8.5 -7t-5.5 -7q-10 -35 -31.5 -62
t-47.5 -50q-21 -17 -43.5 -33.5l-45.5 -33.5q-4 -2 -7.5 -3.5t-7.5 -3.5q3 5 5.5 8.5t6.5 7.5l23 17t22 19l39.5 37t36.5 40q11 11 18.5 26.5t13.5 30.5q7 18 3 23.5t-23 6.5q-18 0 -36.5 -1t-36.5 -3q-25 -1 -49 -2.5t-47 -0.5q-26 1 -39 18.5t-3 41.5l28 63t32 61
q32 52 69 99.5t82 89.5q24 23 49.5 32.5t57.5 -5.5q17 -7 32 -14t30 -15q25 -14 17 -43q-17 -47 -37 -92.5t-51 -85.5q-7 -9 -19 -13.5t-24.5 -3.5t-24 6t-16.5 15q-13 15 -4 31zM62 51q4 3 8.5 5t9.5 5q-3 1 -4 2t-2 1q-9 -6 -17 -10q1 -3 5 -3zM104 74q1 0 1 -1.5t2 -1.5
v3h-3zM210 379q-8 -2 -13 -3q4 -1 7 -1.5t6 -0.5t5 1t4 1q-2 1 -4 1.5t-5 1.5zM162 381q-3 0 -7.5 -1.5t-8.5 -3.5l12 -3q4 1 8 1.5t7 1.5q-2 2 -4.5 3.5t-6.5 1.5zM270 605l-1 -1q1 0 1 -1v2zM394 190h-1v1zM381 167q-2 9 -1 15.5t13 7.5l-6 -12t-6 -11zM327 122h-2
q1 0 1 1zM325 122q-2 -2 -5 -3.5t-6 -2.5v7q3 0 6 -0.5t5 -0.5zM334 128q-4 -4 -7 -6l-1 1q6 4 8 6v-1zM342 136q-2 -2 -4 -3.5t-4 -4.5v1q1 3 7 7h1zM347 145q-2 -2 -3 -4.5t-2 -4.5h-1q2 3 2.5 5.5t2.5 4.5zM362 157q-1 -2 -6 -7q-2 -2 -4.5 -2.5t-4.5 -2.5l-1 1q5 1 9 5
v-1v1q4 3 7 7v-1zM371 163q-2 -2 -4.5 -3t-4.5 -3v1q2 2 4 3t4 3zM381 167q-2 -1 -5 -2t-5 -2l-1 1q2 0 5.5 1t5.5 2z" />
    <glyph glyph-name="T" unicode="T" horiz-adv-x="403" 
d="M159 174l1 -2l-1 -1v2v1zM588 707q5 -25 -0.5 -33.5t-30.5 -10.5q-44 -5 -86.5 -8t-87.5 -8q-8 -1 -16 -0.5t-16 -0.5q-2 0 -3 -1.5t-4 -2.5q3 -1 5 -2.5t4 -1.5q28 0 58 3q33 2 65.5 3l66.5 2q2 0 4 -0.5t4 -0.5q-2 -1 -4 -2.5t-4 -1.5l-81 -8t-81 -6q-20 -1 -26 -21
l-63 -240t-48 -243q-4 -26 -4.5 -51.5t-2.5 -51.5v-15.5t-3 -10.5q-9 -3 -19.5 -5t-18.5 0q-26 5 -33 33q-8 29 -6 57.5t2 56.5q0 8 -0.5 14t-1.5 12q0 -4 -0.5 -7t-0.5 -7v9.5t1 9.5q2 2 2 4q1 0 1 -1v2q0 13 3 24h-1q-2 0 -2 2q0 -6 -0.5 -12t-0.5 -12l-4 13.5t0 12.5
q8 58 14 116.5t15 116.5q5 27 14 52t17 51q0 -4 0.5 -7t0.5 -7q3 6 4 15h-5v-1q0 1 -1 1h6l12 33.5t11 33.5q2 8 -2.5 9.5t-10.5 1.5q-24 -2 -48 -5t-50 -5q4 2 7 5t7 3q23 4 45.5 7t45.5 8q2 0 5 2.5t5 4.5q-6 2 -10 2q-48 -8 -95.5 -14t-95.5 -23q-18 -5 -28 13
q-3 8 -7 16t-6 16q-6 22 0 32.5t27 18.5q52 18 105 28.5t108 16.5q72 6 144 9.5t144 9.5q19 2 30.5 -5t17.5 -26q2 -5 3.5 -11t3.5 -11zM169 216q0 2 0.5 2.5t0.5 1.5q-1 0 -1.5 -0.5t-2.5 -0.5q3 -3 2 -3q0 -1 1 0zM169 238q0 2 1 3l-2 2l-1 -2q0 -1 2 -3zM213 501h-3l1 -3
zM109 605q3 0 7 0.5t7 0.5q2 0 4 -0.5t4 -0.5q-2 -1 -4 -1.5t-5 -0.5q-2 1 -6 1t-7 1zM132 605l-1 -1v1h1zM151 143q1 1 2.5 2t2.5 2v1v-1q-1 -2 -2 -3t-2 -3h-1v2z" />
    <glyph glyph-name="U" unicode="U" horiz-adv-x="550" 
d="M608 699q3 -5 3.5 -12t-0.5 -12q-4 -17 -9 -34l-10 -34q-40 -107 -65.5 -217l-50.5 -222q-8 -36 -11 -73t-8 -74q0 -2 -1 -6.5t-3 -5.5q-13 -5 -26 -9t-25 -4q-13 0 -20.5 9.5t-10.5 23.5q-2 13 -3.5 27t0.5 28l12 103.5l12 104.5v16q-7 -10 -8 -17q-5 -25 -9.5 -50.5
t-8.5 -50.5q-4 -22 -7 -43.5t-8 -43.5q0 -2 -2 -4t-3 -5q-2 3 -4.5 6t-2.5 5q2 36 4.5 72t4.5 72q1 8 2 14.5t2 14.5q0 3 -1.5 6.5t-3.5 5.5q-2 -2 -4.5 -4t-4.5 -5l-44.5 -86.5l-45.5 -86.5l-22 -35.5t-24 -34.5q-8 -13 -19 -21.5t-28 -8.5q-4 0 -7 -3.5t-7 -5.5
q-3 -1 -5.5 -3t-3.5 0l-27.5 15.5t-24.5 17.5q-14 10 -26 3v1q-12 -1 -19.5 -0.5t-12 3.5t-7.5 10t-6 19q-11 32 -10.5 64t3.5 64q9 91 28.5 179t53.5 173q7 17 15.5 33l16.5 32q4 7 9 11.5t14 -3.5q4 -2 9 0q13 10 24.5 10.5t22.5 -3t22 -10t22 -11.5q9 -5 7.5 -13
t-3.5 -16l-21 -61.5t-19 -61.5q-22 -76 -36 -152.5t-19 -155.5q0 -5 -0.5 -8t-0.5 -7q2 -9 6 -16q2 3 5.5 6.5t5.5 6.5l39.5 81.5l38.5 81.5q45 106 103.5 203.5l118.5 194.5l13.5 18.5t11.5 19.5q7 15 17.5 19.5t25.5 2.5q26 -4 42.5 -18.5zM100 447q1 4 1 8v8q0 2 -1 4
l-2 4q0 -2 -1 -4t1 -4q0 -4 0.5 -8t1.5 -9q-5 -7 -9.5 -12.5t-6.5 -12.5l-27 -142t-24 -143q-5 -26 -2 -53.5t23 -49.5q15 19 8 42q-2 9 -2.5 18.5t-1.5 20.5q-3 112 18 223q4 28 10.5 55zM115 524v4l-2 -2zM394 337l1 -2zM400 341q2 2 2 6q-2 -1 -5 -4q-2 -2 -2 -3t-1 -3
q5 2 6 4zM402 375l1 -2zM409 388q4 6 5 10q0 1 -1 1q1 0 1 -2q-2 -2 -2.5 -4.5t-2.5 -4.5z" />
    <glyph glyph-name="V" unicode="V" horiz-adv-x="348" 
d="M481 748q12 -5 14 -10.5t-6 -15.5l-23.5 -29.5l-22.5 -29.5q-24 -29 -40 -63t-30 -69q-16 -40 -33.5 -79.5t-38.5 -77.5q-40 -79 -68.5 -160.5t-52.5 -166.5q-2 -6 -3.5 -12.5t-3.5 -13.5q-3 -4 -6.5 -8t-8.5 -6q-37 -19 -69.5 -7t-46.5 52q-8 25 -14 49.5t-9 50.5
q-14 85 -18.5 169.5t0.5 170.5q2 33 2.5 64.5t1.5 62.5q4 20 6.5 37.5t5.5 35.5q2 7 5 13t8 10q2 5 7.5 6t10.5 0q2 0 4.5 -5.5t1.5 -9.5q-2 -24 20 -24q6 0 11.5 -2.5t11.5 -4.5t12 -2t13 5q1 2 6 -1t7 -5q11 -16 13 -35t2 -39l-2 -119.5l-2 -119.5q-1 -38 -0.5 -76
t0.5 -77q0 -2 1 -4.5t2 -5.5q2 3 4 5l4 4l32 75t34 75l54.5 114.5t57.5 114.5q23 39 52 75l57 73q7 9 15.5 14.5t21.5 1.5zM269 408l-2 3q0 -1 1 -2q0 -1 1 -2v1z" />
    <glyph glyph-name="W" unicode="W" horiz-adv-x="778" 
d="M945 707q2 -2 -0.5 -10.5t-7.5 -13.5l-67.5 -98.5l-68.5 -96.5q-69 -100 -128 -203t-107 -214l-7.5 -15t-8.5 -15q-8 -14 -22.5 -18t-30.5 -2q-6 1 -10 7t-7 11.5t-6 8t-7 -2.5q-10 -10 -18 -11t-18 -3q-51 -11 -68.5 5.5t-19.5 57.5q-3 45 -3 89.5t1 89.5q0 21 1 42.5
t1 42.5q-6 -8 -13 -15t-12 -15l-68 -129.5l-65 -130.5q-11 -23 -28 -37.5t-38 -27.5q-24 -14 -45 -2.5t-27 40.5q-1 5 -2.5 9.5l-2.5 7.5q-1 -3 -1 -7.5t-2 -8.5q-1 -4 -0.5 -9t0.5 -9.5t-2 -8t-9 -3.5t-14 10t-12 18q-4 7 -5 16t0 18q8 152 41 297.5t108 284.5
q6 12 15 21.5t23 17.5t28 18.5t27 21.5q11 11 21 11.5t23 -4.5q34 -14 41 -30.5t-7 -48.5q-51 -125 -93.5 -251t-72.5 -258q-4 -13 -4.5 -24.5t-1.5 -25.5q13 23 26 43l75 119.5l76 118.5q21 32 38.5 65t27.5 70q8 29 19.5 57.5l22.5 57.5q6 14 10 21.5t10 10.5t15.5 1.5
t24.5 -4.5q5 -1 10.5 -1t11.5 -2q28 -11 35 -23.5t0 -40.5l-22 -86l-22 -86q5 6 8 12.5l6 12.5l23.5 75t24.5 74q1 5 4 7.5t7 5.5q1 -4 3 -7t1 -8l-16 -91t-17 -92l-14.5 -71.5l-15.5 -71.5q-2 -4 -1 -9t1 -11q4 2 8.5 5.5t8.5 4.5q3 1 7.5 -0.5t4.5 -2.5q-2 -11 -3.5 -21
t-3.5 -21q5 4 11.5 7t8.5 8q66 123 143.5 237t165.5 223q17 18 43 29q5 2 15.5 -3t18.5 -10zM161 564h-1q-1 0 -2 1v-1h3zM171 638l-22 -33q3 -5 4.5 -8t3.5 -4q3 -2 6.5 -0.5t4.5 3.5q7 16 13 38zM46 102l-3 2l-1 -2h4zM91 356v13.5t-2 14.5q-2 -8 -3 -15t-3 -14
q-2 -6 -1 -11.5t1 -10.5l4 10.5t4 12.5zM117 445q1 2 0 5t-2 5q-1 -2 -3.5 -4t-3.5 -5q-4 -13 -7.5 -25.5t-6.5 -24.5q10 24 23 49zM485 203q5 56 6 109q-4 -3 -7.5 -7t-4.5 -8q-5 -26 -8 -52.5t-7 -52.5q0 -8 1 -14t1 -14q5 6 9 11.5l8 10.5q2 5 2 9.5v7.5zM492 318
q2 24 4.5 47.5t4.5 46.5q-5 -17 -8.5 -34t-6.5 -34q-2 -6 1 -12.5t5 -13.5zM510 144l2 1h1q-1 2 -1 3.5t-1 3.5q0 -5 -1 -8zM522 160q5 3 8 8t7 9v4v-4q-9 3 -13 1t-6 -6t-3 -9t-3 -8q2 1 5 2t5 3zM546 289q4 0 8 2q-2 -1 -3.5 -1.5t-3.5 -1.5l1 -1q-1 0 -1 1h-1v1zM566 319
l2 -1h-2v-1l-1 1z" />
    <glyph glyph-name="X" unicode="X" horiz-adv-x="502" 
d="M664 667q3 -1 4 -9.5t-2 -13.5q-5 -8 -13.5 -15l-16.5 -13q-80 -63 -145 -137l-128 -152q-21 -26 -10 -54l33 -87l33 -86q2 -5 5 -10t4 -10t-0.5 -10t-7.5 -11q-6 -5 -15 -7.5t-18.5 -2.5t-18 2.5t-13.5 7.5q-7 5 -12 12.5t-9 15.5l-21 46l-20 46q-4 8 -8.5 13.5
t-8.5 12.5q-5 -5 -11 -10t-10 -11l-66.5 -92.5l-64.5 -93.5q-5 -6 -7.5 -10t-6.5 11q-5 14 -18 14t-17 -14q-6 -21 -16 -21.5t-24 6.5q-23 9 -30.5 19t-2.5 27q14 51 30.5 98.5t51.5 90.5q28 36 53.5 73.5t53.5 73.5q11 15 14 29.5t-2 33.5q-15 47 -27 93l-24 94
q-2 6 -3.5 11.5t-0.5 11t5 10t14 7.5q23 8 40.5 6t25.5 -16q7 -9 11.5 -19.5t6.5 -20.5q8 -23 14.5 -46l12.5 -46q2 -4 4.5 -7.5l5.5 -7.5q5 2 9 4t8 6l61 66t62 66q26 26 56.5 49.5l59.5 47.5q11 9 24 13t27 -7l6.5 -9t3.5 -10q0 -3 -4.5 -7.5t-8.5 -6.5q-8 -5 -17 -8
t-16 -10l-61.5 -59l-62.5 -62q-2 -2 -2.5 -7t-1.5 -10l68 54.5l67 53.5q8 7 17 13.5t18 6.5q16 -1 31.5 -5.5t31.5 -10.5zM235 201q0 1 1 1q-1 0 -3 1q0 -1 1 -1t1 -1zM254 230l-2 1v-1h2zM429 552q-10 0 -15.5 -2.5t-0.5 -13.5zM393 513h1h-1z" />
    <glyph glyph-name="Y" unicode="Y" horiz-adv-x="337" 
d="M32 143l11 17l11 17v6q1 2 1 5.5t2 5.5q0 -2 -1 -5.5t-1 -5.5q-1 -2 -1 -6q-2 1 -5 1t-5.5 0.5t-3.5 1.5t1 6q7 17 14.5 33l15.5 33q1 2 4 3t5 3l-1 1q10 0 12.5 5t1.5 13q-9 62 -25 122t-34 120q-10 36 -16.5 73l-12.5 74q-3 17 2 22.5t22 7.5t20 -1.5t6 -20.5l17.5 -74
l17.5 -73q1 -4 3.5 -7t4.5 -7q1 5 1.5 8t-0.5 7q-5 29 -9 57t-9 56q-1 8 -1.5 16.5t-0.5 16.5q-1 2 0.5 3.5t2.5 3.5l4 -2t4 -3q2 -10 5 -19t5 -20q13 -46 24.5 -91t25.5 -92q3 -11 8.5 -20.5t10.5 -20.5q5 9 10.5 17.5l10.5 16.5l70.5 104.5l71.5 103.5q14 19 28.5 36
t30.5 34q9 9 15 14t12 6t13 -1.5t18 -8.5q15 -5 28 -20q13 -10 12 -14t-13 -18q-12 -15 -21.5 -31l-20.5 -33l-63.5 -95.5t-61.5 -97.5l-51.5 -89l-49.5 -89q-9 -17 -16 -33.5t-17 -32.5q-10 -17 -16.5 -34.5t-14.5 -34.5q-5 -9 -11 -24.5l-12.5 -33l-12 -33t-9.5 -24.5
q-3 -10 -5 -20t-6 -21q-2 -4 -5.5 -9t-6.5 -5q-18 2 -35.5 4.5t-34.5 8.5q-6 2 -9.5 13.5t-3.5 21.5q1 14 4.5 26.5t6.5 26.5q1 4 4.5 14t7 21.5t7 21.5t3.5 13q1 5 -1.5 9.5t-2.5 9.5q-1 2 1 5t3 6q0 -1 0.5 -2.5t0.5 -3.5q3 2 6 5h-1zM105 492q-4 -3 -4 -4q0 -4 2 -6h2
q1 0 2 1q-1 2 -1 4.5t-1 4.5zM69 223q-2 0 -2 -1q-3 0 -3 -2q2 0 3 0.5t2 0.5v2zM77 246q0 -3 -2 -4h5q-1 1 -1 4h-2zM99 334q0 -1 -0.5 -1t-0.5 -2v-2l2 2v1q0 1 -0.5 1t-0.5 1zM80 258q0 4 0.5 8t0.5 9q1 0 3 -2q1 -1 2 -1q-2 -3 -3.5 -6.5t-3.5 -6.5zM26 144l2 4t1 4l2 4
l2 4q0 -3 0.5 -5t0.5 -4q0 -4 -2 -8h1q-2 1 -7 1z" />
    <glyph glyph-name="Z" unicode="Z" horiz-adv-x="561" 
d="M514 514l-161.5 -190l-162.5 -190q-5 -7 -9.5 -14.5t-10.5 -14.5l18.5 -2t18.5 0q62 5 122.5 6.5t120.5 -9.5q53 -9 77 -59q12 -20 -12 -20q-11 0 -22.5 2t-23.5 2q-72 1 -142 -3.5t-140 -15.5q-23 -5 -46.5 -11.5t-47.5 -14.5q-13 -4 -23.5 -2t-20 7t-18 12t-15.5 15
q-16 15 -17 34t7 38q5 14 12 26l14 25q59 99 122.5 189.5t139.5 175.5q23 26 47.5 49l48.5 46q4 3 6 7t5 7q-5 -1 -10 0t-10 -1l-30 -13.5t-30 -14.5q-20 -10 -39.5 -21t-39.5 -21q-13 -7 -14.5 -18t-2.5 -23h-9q-14 2 -28.5 1t-27.5 14q-14 17 -14.5 33.5t14.5 30.5
q27 27 54 41q85 50 174.5 82t185.5 52q14 2 32.5 -7t25.5 -23q3 -5 2 -8.5t-1 -8.5q-1 -5 -3 -10.5t0 -10.5q8 -16 1.5 -26.5t-14.5 -21.5l-51.5 -61zM88 85q-2 1 -2 2l-2 -2h4zM101 107q-1 -1 -1.5 -1t-1.5 -1l1 -2q1 1 2 1v3z" />
    <glyph glyph-name="at" unicode="@" horiz-adv-x="483" 
d="M64 472q0 -1 -1 -1h-1v1h2zM454 401q13 -102 -58 -178q-23 -25 -52.5 -30.5t-61.5 2.5q-14 4 -19 14t-7 23q-2 5 -3 8t-2 7q-3 -3 -6.5 -5t-5.5 -4l-29 -28l-29 -28q-11 -11 -24.5 -11.5t-27.5 1.5q-11 2 -13 -1t0 -14q8 -26 22 -37.5t43 -10.5q41 2 76 22q15 10 30.5 9
t30.5 -7q5 -2 8 -5.5t8 -7.5q-4 -4 -6.5 -7.5t-6.5 -5.5q-42 -27 -92 -30q-40 -5 -78 0.5t-75 25.5q-23 13 -39 31.5t-21 44.5q-5 19 -9 39.5t-4 41.5q-2 48 8.5 92.5t30.5 86.5q4 8 9.5 16l10.5 16q0 -6 -0.5 -10t-1.5 -9q-17 -57 -27.5 -114.5t-7.5 -117.5
q1 -15 5.5 -29.5l9.5 -29.5q1 -2 4.5 -3t6.5 -3q-1 -3 -1 -9q0 6 1 9q-3 11 -7 21.5t-5 22.5q-10 75 4.5 146t59.5 134q26 36 62 57.5t77 26t83.5 -9t81.5 -47.5q23 -21 33 -48.5t14 -56.5zM239 330q1 4 3 10q-4 0 -7.5 0.5t-6.5 -0.5q-21 -5 -35.5 -18.5t-27.5 -30.5v-2v-2
l-1 -1v-1l-12 -24l-3.5 -9t-1.5 -9q0 -4 6 -10q0 -1 2.5 0t4.5 4q3 2 5.5 4l6.5 5l33.5 41zM240 359q0 -1 2 -1q1 0 2 1h-2h-2zM349 285q8 16 13.5 31t9.5 24q4 41 -1 73.5t-22 61.5q-9 16 -21 28.5t-28 18.5t-34.5 4t-39.5 -14q-45 -26 -67 -65t-35 -85q-2 -4 -1 -6.5
t1 -7.5q2 2 5.5 3.5t5.5 3.5q26 24 55.5 30t61.5 -2q12 -3 22 -4t21 9q4 4 13 3.5t16 -2.5q9 -2 5 -7t-3 -9q0 -5 1.5 -10t4.5 -7q13 -8 12.5 -16.5t-3.5 -20.5q-2 -8 -3 -16t-1 -16q0 -4 1 -7t2 -7q3 3 5.5 5t3.5 7zM62 472q2 1 3 1q-1 0 -1 -1h-2zM84 500q-3 -20 -19 -27
q4 7 8.5 14t10.5 13zM107 517q-1 0 -2 -1v2q0 1 2 1v-2zM84 501v-1v1l1 1l1 -1h-2zM341 378h-2l1 3z" />
    <glyph glyph-name="numbersign" unicode="#" horiz-adv-x="494" 
d="M471 351q7 -24 -18 -22q-13 1 -26 3l-27 4q-14 1 -28.5 1t-28.5 2q-14 3 -18 -2t-6 -16q-2 -9 -3 -14t0.5 -7.5t6.5 -4t15 -2.5q18 -3 36.5 -5.5t35.5 -6.5q2 0 4 -1l4 -2l-3.5 -3.5t-3.5 -2.5q-2 -2 -6 -4t-7 -2q-11 0 -12.5 -4.5t0.5 -14.5q2 -17 -2 -20.5t-21 -3.5
q-11 1 -22.5 1h-22.5q-17 1 -22 -2t-10 -19l-18 -75q-4 -20 -22 -35h1q-15 -11 -35 -5q-12 5 -15 9t0 18q5 23 9.5 46.5t9.5 46.5q1 5 2.5 10t-8.5 7q-7 2 -14 2t-12 -8q-1 -3 -2 -6.5t-1 -6.5l-15.5 -76l-15.5 -76q-2 -7 -2 -13t-9 -6t-11.5 6.5t-0.5 14.5q1 17 2.5 35
t2.5 35q1 5 0.5 11t-0.5 11q-2 -5 -5 -11t-5 -11q-2 -15 -4.5 -30.5t-5.5 -30.5q-1 -3 -0.5 -6t-1.5 -5q-13 -10 -25 -16q-2 5 -6.5 10.5t-3.5 10.5q2 23 5.5 46t6.5 46l4 29t6 28q4 20 -18 22h-13.5t-13.5 2q-6 2 -12 6t-10 9q-5 9 -5 20.5t-12 17.5q2 3 3 7.5t4 6.5
q9 6 21 7l27.5 2t27.5 1q20 0 23 21q2 10 -1 15t-14 3q-13 -1 -26 -1.5t-26 -0.5q-20 -1 -31.5 6.5t-19.5 24.5q-12 30 17 31q21 2 42.5 2.5t43.5 0.5q12 0 18 0.5t9.5 3.5t5.5 9t4 18q5 21 8.5 42t8.5 42q2 6 5.5 13t7.5 8q5 1 11 -4l11 -9q1 -1 2 -3.5t2 -4t2 -0.5t4 6
q2 8 8 8.5t13 -1.5q6 -2 11 -7t3 -13q-1 -14 -1.5 -27t-1.5 -24q-1 -21 -6 -41q-2 -8 -1.5 -13.5t10.5 -6.5t17 0.5t10 14.5q2 16 6 30.5l8 30.5q3 22 23 17q3 -2 7.5 -1.5t8.5 -0.5q24 -5 30.5 -14.5t1.5 -33.5q-2 -10 -4 -18.5t-4 -18.5q-2 -14 12 -15q21 -3 41 -6.5
t40 -5.5q17 -2 24 -12t12 -23zM83 272q5 1 9 2.5l9 3.5q-2 1 -5 2l-6 2q-5 -1 -8.5 -2.5t-8.5 -2.5q2 -1 4.5 -3t5.5 -2zM137 168q1 5 0.5 10.5t-0.5 11.5q-1 -5 -2.5 -10t-2.5 -9q-1 -2 -0.5 -4t0.5 -4q1 1 3 2.5t2 2.5zM145 209q1 3 0.5 5.5t-1.5 5.5q-3 -3 -5 -10
q-1 -5 -1 -17q2 5 4 8t3 8zM167 328q0 1 1 2l-1 1l-1 -1q0 -1 1 -2zM186 425h-1v-1zM199 498h-2l1 -3zM237 312q4 6 4.5 13.5t-1.5 14.5q0 2 -7 3t-11 1q-7 -1 -12 -11.5t-3 -18.5q1 -4 5.5 -6t9.5 -7q4 4 9 6t6 5zM387 270h4v2h-4v-2zM393 217l2 1l1 -2h-3v1zM435 218v-1
q0 -1 1 -1q-1 0 -1.5 -0.5t-2.5 -0.5v3h3zM247 93h-1q1 0 2 1z" />
    <glyph glyph-name="a" unicode="a" horiz-adv-x="416" 
d="M291 89l-2 29.5t-3 29.5q0 5 -3 13q-4 -2 -7 -4t-5 -6l-40 -49.5l-40 -51.5q-23 -29 -53.5 -38t-66.5 -7q-30 2 -46.5 19t-19.5 39q-11 60 0.5 117.5t45.5 110.5q22 31 54 46.5t69 18.5q25 2 50.5 0t49.5 -13q3 -3 7.5 -3.5t7.5 -1.5q14 -2 16 9q6 46 12.5 91l13.5 92
q2 25 -18 10l-52.5 -42t-51.5 -44q-16 -14 -30 -30.5l-28 -32.5q-12 -14 -33.5 -17t-35.5 9q-2 1 -3 5.5t0 6.5q2 7 6 11.5t8 8.5q13 16 26.5 30t25.5 30q17 18 32 37t32 36q40 42 97 58q16 5 30 0t28 -18q11 -10 22.5 -18.5t26.5 -10.5q17 -3 21 -9.5t-1 -24.5
q-7 -38 -16.5 -75.5t-15.5 -75.5l-15.5 -121t-14.5 -123q-2 -14 -2.5 -27t4.5 -27q4 -20 -3.5 -35t-9.5 -32q0 -5 -6 -6q-19 -11 -38 -1t-23 33q-1 14 -1.5 27t-2.5 27h2zM316 588q-3 -3 -4 -5v1q1 1 1.5 2t1.5 2q2 -1 4 -1.5t4 -1.5q-3 3 -2 3h-5zM125 103q3 2 5 3t4 3
l67 71.5l67 71.5q5 7 6 12q1 7 -4 15t-13.5 14t-18 8t-15.5 -2q-12 -6 -23.5 -13.5t-20.5 -18.5q-26 -34 -37.5 -74t-19.5 -82q0 -2 1 -4zM103 113l-3 9q-1 -2 -3 -10q0 -2 1 -3.5t1 -4.5q1 3 2 5zM99 87h1l-1 2v-2z" />
    <glyph glyph-name="b" unicode="b" horiz-adv-x="436" 
d="M380 403q-29 -19 -59 -36.5l-59 -35.5q-11 -8 3 -13q19 -10 33 -24t24 -31t17.5 -36l14.5 -38q11 -31 -12 -54q-9 -10 -19.5 -19.5t-21.5 -14.5l-117.5 -50.5l-117.5 -49.5q-6 -2 -13.5 -3t-12.5 2q-8 5 -13.5 13.5t-10.5 14.5v4l-10.5 16t-6.5 16t6 15t9 16l21 101.5
t22 101.5q17 65 38.5 127t54.5 120q2 2 1.5 5t0.5 6q-2 -1 -4 -1t-4 -2l-30 -18.5t-29 -19.5q-7 -7 -9 -18q-5 -11 -9.5 -12t-12.5 7q-5 5 -9.5 10t-8.5 11q-24 35 3 60q32 29 65 46q60 27 122.5 42.5t129.5 13.5q46 -2 80.5 -20.5t63.5 -50.5q23 -24 24 -58t-17 -61
q-20 -29 -46 -48.5t-62 -25.5q-5 -1 -10 -3l-10 -4zM279 153v-1q0 -1 1 -1q-1 1 -2 1v-2zM161 265q3 2 6 3t8 3h14.5t15.5 1q5 0 9 1.5t9 1.5q-5 2 -10.5 3.5t-10.5 0.5q-8 -2 -14 -4.5t-12 -4.5q-5 -2 -8.5 -3t-7.5 -3zM144 86q-3 -3 -5 -4q4 2 5 3q4 2 7 3t7 2q0 1 2 3
l-3 -3q-3 -1 -6.5 -1.5t-6.5 -2.5zM240 124q1 4 6 7q1 2 1 3.5t1 3.5q-2 -2 -4.5 -2t-3.5 -1q-1 -3 -0.5 -5.5t0.5 -5.5q-5 0 -9 -0.5t-8 -0.5q-8 -2 -15.5 -6t-15.5 -7q0 -1 1 -2q0 -1 1 -1q8 4 14.5 8.5t13.5 8.5h18zM109 64q2 4 2 5q2 2 3 3.5t2 2.5l-1 -1q-2 0 -4 -5
q0 -1 -0.5 -2t-0.5 -2q-3 3 -3 2t1 -1.5t1 -1.5zM468 581q-7 7 -13 10q-21 10 -43 16t-44 4q-44 -2 -86 -11t-84 -25q-5 0 -7.5 -2t-6.5 -4q4 -2 7.5 -4.5t7.5 -4.5q7 -3 13.5 -5.5t12.5 -6.5q17 -9 17.5 -13.5t-6.5 -21.5l-27.5 -66.5t-26.5 -67.5q-2 -5 -1.5 -10t-0.5 -10
q4 2 8.5 4t7.5 4l96.5 66l95.5 67q19 14 35 29.5l33 31.5q4 3 6.5 8.5t5.5 11.5zM273 227q-2 2 -2 3.5t-1 2.5q-4 4 -8 4q-15 0 -30.5 2t-31.5 -2q-18 -2 -35 -9t-35 -12q-1 -1 -2 -3l-2 -4l-9.5 -31.5l-9.5 -31.5q0 -3 0.5 -5.5t1.5 -5.5q7 0 11 2l32.5 17.5l31.5 17.5
l39.5 22.5l38.5 22.5q3 3 6 5t5 5z" />
    <glyph glyph-name="c" unicode="c" horiz-adv-x="399" 
d="M241 498q-75 -96 -102 -214q-8 -42 -15 -85.5t1 -86.5q3 -17 9.5 -34.5t14.5 -34.5q5 -13 15 -15t20 6q20 15 38.5 30.5t35.5 32.5q20 21 23.5 23.5t4 1.5t4 1.5t23.5 23.5q8 8 17.5 13.5l18.5 10.5q5 1 12 0t12 -3q22 -7 7 -28l-59 -75l-3 -4q1 2 -2 -1t-12 -14
q-41 -48 -89 -55.5t-106 9.5q-44 14 -63.5 42.5t-30.5 66.5q-11 45 -14.5 90.5t7.5 91.5q11 43 24 85.5l27 84.5q11 33 31.5 61t47.5 51q11 8 23.5 14t23.5 13q10 5 19 11t19 12q26 18 56.5 12.5t50.5 -33.5q2 -3 4 -5.5t5 -4.5q23 -13 26.5 -31.5t-1.5 -38.5
q-8 -26 -17.5 -51.5l-18.5 -51.5q-6 -18 -14.5 -22.5t-24.5 0.5l-10 3q-13 5 -19.5 8t-8.5 7.5t0 11.5t7 20q7 19 11.5 38l9.5 39q-15 2 -22.5 -7.5t-15.5 -18.5z" />
    <glyph glyph-name="d" unicode="d" horiz-adv-x="475" 
d="M264 177v-1v1zM485 498q16 -28 12.5 -55.5t-19.5 -53.5q-10 -17 -20.5 -33t-24.5 -29l-75 -70.5l-76 -69.5q-4 -4 -8.5 -5.5t-9.5 -4.5q-1 3 -1 4.5t-1 3.5q-2 -2 -3 -4t-2 -5v1v-1v-4v-2v1q-8 -4 -15 -8l-14 -8l-81.5 -71l-82.5 -71q-14 -12 -20 -12t-19 11
q-10 7 -17 15q-21 24 0 45q10 8 12 18t1 22q0 38 0.5 75.5t4.5 75.5q6 50 14.5 98.5t16.5 99.5q3 16 -9 25q-9 9 -16 17.5t-10 22.5q-6 28 13 43l36 24t38 21q110 48 229 24q22 -4 43.5 -12t35.5 -27q20 -23 37 -49t31 -52zM57 126q0 1 1 1q0 1 -1 2v-3zM59 162q-1 2 -1 4
q-1 -1 -1 -3q-1 -1 0 -1h2zM85 565q2 1 2 2t1 2q-3 3 -4 3q-11 -8 -23.5 -12.5t-15.5 -20.5h-3l2 -1q6 5 11.5 8t11.5 7q5 4 9 6.5zM104 462q0 4 0.5 7t0.5 5h-3q-2 -4 -2 -7q0 -2 1 -2.5t3 -2.5zM213 609q-2 0 -4.5 -1.5t-4.5 -2.5q3 -2 5.5 -3.5t5.5 -1.5q10 -1 19.5 -1
h19.5q58 4 117 -16h8q-1 2 -2 5t-3 3q-21 5 -42 12t-43 11q-19 2 -38.5 0t-37.5 -5zM212 250q8 5 14 12q-7 2 -9.5 -2.5t-4.5 -9.5h-9h9zM200 246q0 2 0.5 2.5t0.5 1.5q-1 -1 -1 -4zM237 274v6v-6zM258 291q-2 0 -4 0.5t-4 0.5q2 -1 7 -1h1zM250 289v3v-3zM283 311h1
q0 1 -1 1v-1zM287 321h1h-1zM313 365q23 25 44 50.5l41 51.5q8 10 12 22.5t9 24.5q5 14 -10 19l-23.5 7.5t-23.5 5.5q-31 6 -62 6t-63 -4q-12 -2 -19 -3t-11 -4t-6 -9t-5 -17q-11 -53 -23.5 -107t-23.5 -108l-10 -51t-9 -52q-1 -2 0 -5.5t2 -5.5q2 1 5.5 1.5t4.5 1.5
q6 6 11.5 12.5l11.5 13.5q6 5 12.5 8t11.5 7q-3 1 -5.5 1.5t-6.5 1.5l69 65.5zM421 458h-1v1q0 -1 1 -1zM407 414q1 1 1 2l-1 1v-3zM450 412h-1q-2 1 -3.5 1.5t-3.5 1.5q-2 2 -2 -2q5 0 8 -1h2zM452 445l1 -1zM457 421l2 2q0 1 -2 3v-5zM452 445q7 -4 12.5 -3t6.5 11
q0 10 -1.5 19.5t-3.5 19.5q-1 1 -4 2.5t-5 3.5v-9q-2 -11 -2.5 -21.5t-2.5 -22.5zM263 176l1 1v-1h-1zM257 176h6q-4 -2 -6 -4v4zM228 153v2v-2z" />
    <glyph glyph-name="e" unicode="e" horiz-adv-x="397" 
d="M373 464q4 -5 6 -11.5t5 -11.5q-6 2 -11.5 3l-11.5 2q-3 1 -7 3.5t-7 0.5q-10 -4 -18.5 -1t-16.5 9q-16 10 -27 0l-27.5 -22.5t-22.5 -24.5q-17 -27 -32.5 -55.5l-31.5 -57.5v-10q8 -4 15 -4q25 1 47.5 2.5t46.5 2.5q2 1 6.5 0t6.5 -4q3 -2 6 -6.5t2 -8.5q0 -4 -3.5 -7
t-7.5 -4l-91 -6q-6 -1 -12.5 -1h-12.5q-15 -1 -25 -7t-13 -22q-4 -14 -9.5 -28t-6.5 -28q-2 -32 -0.5 -54t4.5 -36t7 -21.5t8 -11.5q5 1 15 5q45 15 85.5 36t77.5 50l13 10q3 1 9 1t11.5 -1t9.5 -3t4 -4q-1 -5 -4 -9.5t-7 -8.5q-37 -34 -78.5 -61t-90.5 -46q-29 -11 -64 -9
q-64 3 -92 63q-8 18 -14.5 37.5t-14.5 38.5q2 26 1.5 52t2.5 49q7 56 23 105.5t42 96.5q11 20 24.5 37t29.5 32q32 29 70.5 34t83.5 -19q22 -11 43 -25l41 -28q4 -2 7.5 -6t5.5 -7zM135 311l15.5 52.5l15.5 53.5q-20 -28 -32 -59.5t-22 -64.5q-1 -2 1 -4.5t3 -4.5
q2 0 5.5 0.5t3.5 2.5q4 6 6 12zM83 101q1 -8 1.5 -14.5t2.5 -11.5l17 168q-3 0 -5 -2t-4 -11q-6 -32 -11 -64t-1 -65zM148 37h-1h1zM115 244q1 -1 1 0h-1z" />
    <glyph glyph-name="f" unicode="f" horiz-adv-x="389" 
d="M452 692q9 -1 24.5 -1h31.5q19 0 35.5 -7t31.5 -15q5 -2 8.5 -8t7.5 -11q5 -12 -10 -12q-38 1 -75 1.5t-75 1.5q-8 1 -15 1.5t-15 5.5q-8 4 -19 4.5t-21 -0.5q-21 -1 -42 -4t-43 -5q-10 -2 -17 -5.5t-9 -15.5l-18.5 -98l-18.5 -96q-3 -16 0 -19t22 -3q18 0 35.5 0.5
t35.5 0.5q20 0 29.5 -7.5t15.5 -25.5q2 -11 0 -13.5t-14 -2.5q-24 -2 -48.5 -3t-49.5 -3q-7 0 -14 -0.5t-13 -0.5q-10 -1 -13.5 -5.5t-5.5 -13.5q-8 -44 -17 -87.5t-17 -88.5q-5 -20 -7.5 -38t-6.5 -37q-2 -20 -3 -40t8 -40q2 -5 1.5 -9t-6.5 -9q-11 -8 -29.5 -6.5
t-26.5 12.5q-9 9 -19 2q-8 -7 -14.5 -4t-10.5 9l-12 23t-6 24q0 38 1.5 76t5.5 78q1 26 5 52.5t7 53.5q2 13 -1.5 16t-14.5 -5q-11 -7 -16.5 -4t-10.5 10q-11 13 -7.5 26t18.5 21q4 2 8 4.5t8 2.5q21 2 26 12.5t9 26.5q9 45 19 88l20 87q1 3 0.5 7t-0.5 9q-4 -2 -8.5 -2
t-8.5 -2q-14 -5 -28 -9.5t-24 -15.5q-4 -5 -11.5 -7t-9.5 0q-12 10 -15 23q-2 19 18 28q14 5 27.5 12t27.5 12q17 7 33.5 12.5t33.5 10.5q14 4 27.5 4.5t27.5 2.5q61 10 124.5 14.5t133.5 4.5zM70 36q2 5 0 10q-1 2 -1.5 3.5l-1.5 4.5l-1.5 -4.5t-0.5 -3.5q2 -2 3.5 -4
t3.5 -4zM70 97q-1 2 -1 3t-1 2q-2 -2 -2 -6q0 -1 1 -1t1 -0.5t1 -0.5q0 2 1 3zM422 655v-2l2 -1q0 1 1 1q-1 1 -1.5 1t-1.5 1zM76 158q-2 0 -2 -1q-1 0 1 -2q0 1 1 1v2zM82 206q0 -1 -0.5 -1t-0.5 -1l1 -1q1 1 1 2zM73 20l-1 1v-1h1z" />
    <glyph glyph-name="g" unicode="g" horiz-adv-x="509" 
d="M173 391h1h-1zM215 488v2h1zM541 575q16 -7 11 -21q-9 -29 -17.5 -59.5l-17.5 -60.5l-34.5 -110t-37.5 -108q-11 -35 -23 -69t-26 -66q-11 -26 -24.5 -49.5l-27.5 -46.5q-17 -26 -41.5 -39t-56.5 -11q-17 1 -33.5 0.5t-33.5 2.5q-18 3 -35 14.5t-31 26.5t-23.5 33
t-12.5 35q0 8 -1 16t10 13q8 4 21.5 -4t17.5 -16q13 -28 28 -53q2 -3 8 -3v8q-3 9 -6.5 18.5t-5.5 19.5q-1 3 1 8t4 5q6 1 16 -3q4 -3 6.5 -7t4.5 -8t4 -8.5t4 -7.5q14 -22 20 -22.5t20 20.5q28 39 49.5 81t38.5 85q8 20 14.5 38.5t14.5 37.5q2 5 2 11.5t1 12.5
q-5 -4 -10 -7.5t-10 -8.5q-14 -14 -27 -28.5t-28 -27.5q-14 -13 -30 -25t-33 -20q-41 -23 -81.5 -20t-80.5 25q-39 26 -47 73q-5 26 -3 51t8 50q12 54 35 103t55 94q2 3 9 5v-8q0 -2 0.5 -3.5t1.5 -3.5q2 2 4.5 3.5t4.5 3.5q13 17 25 35t27 36q35 41 78.5 71.5t99.5 39.5
q38 8 76 6.5t74 -19.5q11 -5 20.5 -11.5t18.5 -13.5q6 -5 6 -16q1 -2 -4 -4t-8 -1q-14 2 -29 2.5t-28 7.5q-20 11 -38 10t-38 -10q-45 -21 -79.5 -54.5t-63.5 -73.5q-11 -15 -20 -30t-19 -30v-1q-5 -10 -8.5 -19.5t-8.5 -18.5t-6.5 -18.5t-12.5 -15.5q-4 -2 -4 -10.5
t-2 -15.5h-1q-2 -10 -4 -16l1 -1q-3 -12 -7 -19v1q2 5 3 9.5t3 9.5q-6 0 -7 3q-2 -6 -3 -11.5t-3 -11.5l1 2v-2h-1q-11 -26 -14.5 -53t-1.5 -54q0 -2 3.5 -3t5.5 -1q28 6 45.5 26l34.5 40l111.5 124.5l110.5 125.5q17 18 42.5 22t48.5 -7zM31 244q1 0 1.5 -0.5t1.5 -0.5
l-2 4l-1.5 3t-0.5 3q0 -2 -0.5 -4t0.5 -5h1zM36 230q0 1 0.5 1.5t0.5 1.5q-1 2 -1 3t-1 3q0 -5 1 -9zM288 -21v-1v-1v2zM496 442q2 14 9 28.5t12 28.5l-21 -23t-20 -23q-31 -40 -52 -81q-7 -15 -11 -32.5t-9 -34.5q-23 -77 -48.5 -153t-61.5 -148q-4 -6 -4 -12t-1 -14
q32 42 52.5 89l40.5 95l30 81t29 81q6 15 14 29.5l16 28.5t15 28.5t10 31.5zM153 305q-2 4 -2 6q0 1 0.5 2t0.5 3q3 -3 3 -5q0 -4 -2 -6zM157 347q-1 4 -1 8h6v-9l-2 -4q-1 2 -1.5 2.5t-1.5 2.5zM162 356v-1v1zM148 248v-3v-1v4zM147 283v1l1 -1h-1z" />
    <glyph glyph-name="h" unicode="h" horiz-adv-x="537" 
d="M559 633q15 -4 12 -20l-37.5 -177.5t-34.5 -177.5q-10 -56 -16.5 -110.5t-12.5 -110.5q-2 -13 -0.5 -26t2.5 -27q2 -11 -0.5 -15t-15.5 -6q-45 -6 -59 3.5t-15 42.5q-2 38 0 76.5t6 76.5q4 47 11 92t12 91q0 4 1 7t-1 6q0 2 -2.5 4t-4.5 2q-7 0 -13 -3l-77 -26.5
l-79 -26.5q-20 -6 -24 -25l-22.5 -117.5l-22.5 -116.5q-1 -5 -1 -9.5v-8.5q1 -12 -3.5 -17t-17.5 -8q-13 -2 -27.5 3t-18.5 14q-4 10 -6.5 20l-4.5 18q2 21 3.5 39t3.5 35q0 5 -1 7q-3 -1 -5 -6q-2 -23 -5 -46.5t-5 -46.5q-1 -3 -0.5 -7t0.5 -7q-2 -5 -8.5 -6t-8.5 4
q-4 7 -6.5 14t-1.5 13q2 29 3.5 58t3.5 58q1 12 2.5 24.5t1.5 24.5q2 14 -2.5 17t-20.5 2q-6 -1 -12.5 -0.5t-11.5 2.5q-13 5 -15 12t8 15q11 8 23 15.5t25 14.5q10 5 14 11t6 16l28 113.5t30 112.5q5 21 14.5 40.5l19.5 39.5q2 6 5.5 10.5t14.5 1.5q3 -2 8.5 2t8.5 9
q5 8 14 10t20 0q4 0 14 -4q16 -4 25.5 -7t13 -8t2.5 -13t-5 -22l-27 -111.5l-27 -113.5q-3 -11 -1 -13t16 1l74.5 18.5t73.5 17.5q23 5 27 26q16 70 38 141q2 12 5.5 23.5l7.5 24.5q6 20 32 17q11 -2 24 -3t25 -4zM94 159q2 2 3 3.5t2 3.5l4 35l4 36q-4 -17 -7.5 -34.5
t-6.5 -34.5q-1 -2 0 -4.5t1 -4.5zM108 239l-1 1l1 -2v1z" />
    <glyph glyph-name="i" unicode="i" horiz-adv-x="160" 
d="M151 529q28 -2 32 -6t-1 -21q-28 -93 -47 -185.5t-34 -185.5q-1 -8 -2.5 -15t-10.5 -15q-5 -3 -6 -8l-2 -10q-1 -19 -1 -36.5t-1 -36.5q0 -5 2.5 -10.5t-10.5 -7.5q-5 -2 -12.5 -1.5t-14.5 1.5t-12.5 3.5t-6.5 5.5q-5 11 -7 21t-6 21q2 75 10.5 149.5t18.5 149.5
q6 42 14.5 83t22.5 82q3 7 5.5 11t6 6.5t10 3t18.5 1.5q17 2 34 0zM10 293q-1 -3 -3.5 -5t-4.5 -4q-2 3 -3 5t-3 7l14 56t15 58q9 27 21 54q0 2 3.5 4.5t5.5 4.5q0 -2 1 -5t-1 -5l-17.5 -70l-17.5 -70q-2 -8 -5 -15.5t-5 -14.5z" />
    <glyph glyph-name="j" unicode="j" horiz-adv-x="299" 
d="M195 625q-26 -15 -40.5 -13.5t-31.5 20.5q-21 26 6 40q17 8 34.5 14.5t35.5 10.5q35 5 70 7.5t70 5.5q6 0 13 -0.5t10 -4.5q11 -11 21.5 -20.5t24.5 -14.5q2 0 2.5 -3t1.5 -5l-4 -2t-4 -1l-21.5 -2l-21.5 -2t-17.5 -2t-10 -4.5t-5.5 -9.5t-4 -18l-18 -101t-17 -101
l-22 -148l-23 -147q-2 -19 -7.5 -37.5t-14.5 -35.5q-11 -23 -29.5 -35.5t-40.5 -15.5t-44 5t-38 28q-19 20 -31 44t-20 50q-10 31 -16 63.5t-2 65.5q2 11 3.5 20.5t14.5 12.5q15 2 30.5 1t29.5 -12q2 -2 1.5 -8.5t-0.5 -11.5q-9 -95 38 -179q2 -7 7.5 -12l10.5 -10l8 13.5
t5 13.5q4 20 6.5 41t4.5 41q8 109 21 215.5t38 212.5q2 6 2 9q4 19 1.5 21.5t-21.5 0.5q-5 0 -6 1q0 -1 -1 -1h1v0z" />
    <glyph glyph-name="k" unicode="k" horiz-adv-x="449" 
d="M409 111q19 -10 25 -31q1 -2 -3 -6.5t-6 -4.5q-5 0 -8.5 2.5t-8.5 4.5l-138 59l-138 60q-17 7 -21 4.5t-7 -22.5l-10 -63.5l-10 -63.5q0 -5 -0.5 -10.5t-0.5 -11.5q0 -12 -0.5 -18t-3.5 -9t-10 -3t-19 1q-20 2 -30 11t-14 29q-6 26 -7 52t2 53q1 23 1.5 45.5t2.5 45.5
q3 74 9 148t25 147q8 31 17.5 61l19.5 59q2 8 7 15t10 13q3 4 9.5 5.5t8.5 -0.5q12 -11 26 -10.5t28 2.5q19 2 25 -5t2 -27l-26.5 -136l-26.5 -136q-2 -11 -3.5 -22t-3.5 -23q11 5 22 9t21 9l110 56l109 57l6 2t5 2q3 1 9 -1v-4.5t-2 -4.5q-2 -4 -5.5 -6.5t5.5 -7.5
q17 -9 18 -26.5t-14 -28.5q-26 -20 -55 -33l-85.5 -44.5l-86.5 -44.5q-6 -3 -11 -7.5t-10 -8.5l10 -8t11 -7l110 -60zM22 81l10 70t10 75q-1 2 -1 5q-2 -2 -4.5 -5t-4.5 -5v-3q-5 -35 -8 -69.5t-7 -69.5q0 -2 0.5 -3t0.5 -3zM57 316q2 20 5 41l6 42q-4 -1 -7.5 -1.5
t-3.5 -7.5l-6 -47.5l-6 -47.5q-1 -4 -0.5 -9t1.5 -10q2 5 3 10t3 10t2.5 10t2.5 10zM70 445q1 10 1.5 19.5t0.5 18.5q-2 -9 -4.5 -18.5t-4.5 -19.5q-2 -5 -2 -9t-2 -9q-2 -8 1 -14.5t8 -13.5q1 12 1.5 23.5t0.5 22.5zM76 507q1 0 1.5 -0.5t1.5 -0.5v3h-1h-1q0 -1 -1 -2z
M82 529q2 2 2.5 4t1.5 4q0 5 2 9q-3 -3 -6 -9q-2 -2 -1 -4t1 -4zM89 550q1 2 1 4t1 4q0 1 -0.5 2.5t-0.5 3.5q0 -2 -1.5 -3.5t-1.5 -3.5q0 -3 2 -7z" />
    <glyph glyph-name="l" unicode="l" horiz-adv-x="287" 
d="M-1 127q5 104 21 204t37 201q5 22 12 43l14 43q5 14 11.5 17t21.5 -2q14 -3 27 -9l26 -12q15 -8 10 -27l-14 -51t-12 -51q-14 -66 -25.5 -130l-23.5 -130l-10 -52.5t-9 -52.5q-1 -4 -0.5 -6.5t0.5 -5.5q3 1 6.5 2t5.5 3l56 46l56 46q5 6 12 9.5t15 -8.5q0 -2 5.5 -1
t8.5 -1q12 -3 20 -14q-1 -2 -2 -5q-1 -2 -2.5 -4.5t-2.5 -4.5l-52.5 -49.5t-51.5 -50.5q-18 -19 -34 -39l-33 -40q-5 -6 -10 -10t-15 3q-5 2 -12 2h-13q-20 -1 -28.5 5t-11.5 26q-2 14 -2.5 28.5t-0.5 30.5v47zM81 46v-4v-8l2 1q0 4 -1 6q0 1 -0.5 2t-0.5 3h2h-2zM134 317
q6 30 12 65t13 70l12.5 54t11.5 55q0 4 3 9l3 4.5l3 4.5q2 -3 3 -5t1 -5v-10.5t-2 -10.5l-27 -119.5l-26 -119.5l-3.5 -7l-2.5 -5v7t-1 13zM130 277q0 -1 2 -1h1q0 -2 -0.5 -3l-1.5 -3q-1 1 -1 2v5z" />
    <glyph glyph-name="m" unicode="m" horiz-adv-x="611" 
d="M613 556q34 -3 26 -39q-7 -26 -15 -52.5t-14 -52.5q-23 -85 -38.5 -170.5t-29.5 -171.5q-1 -11 -0.5 -21.5t0.5 -21.5q-1 -4 -3.5 -7t-4.5 -8q-4 2 -7 5l-5 5q-4 5 -6 12t-10 8q2 -5 3.5 -9.5t-0.5 -6.5q-5 -5 -12.5 -11.5t-15.5 -9.5q-5 -2 -11.5 3.5t-9.5 10.5
q-4 5 -4.5 11t-1.5 12q-5 78 0 155t25 153l-2 1l1 -1q-8 4 -11 -0.5l-5 -7.5l-31 -49.5l-30 -49.5q-5 -9 -11 -17.5t-12 -18.5l-1 -1q-32 -29 -49 -65l-34 -73q-11 -21 -37 -18q-20 5 -20 30q2 54 5 107.5l6 108.5l4 38.5t3 39.5q0 2 -2 8q-2 -2 -4 -3t-2 -2q-2 -3 -4 -5.5
t-3 -5.5q-51 -88 -97 -178t-75 -188q-2 -9 -6.5 -14t-14.5 -5h-24q-7 0 -15 -1.5t-9 1.5q-9 16 -9 35q0 14 1.5 26t3.5 26q8 91 17.5 182.5t32.5 182.5q6 26 15 50.5l18 50.5q2 7 8.5 13.5t11.5 5.5q11 -2 21 -6.5t21 -10.5q2 -2 0.5 -9.5t-3.5 -12.5l-29.5 -119.5
l-28.5 -119.5q-2 -5 -1 -11t1 -11q5 5 13 5t10 9q2 -5 4 -6q1 -1 4 0t3 2l44.5 79l44.5 79q13 22 27 43l28 41q11 15 19.5 18t23.5 -3q20 -6 27.5 -15t5.5 -26q-4 -38 -7.5 -75.5t-8.5 -74.5q-3 -27 -6.5 -53.5t-6.5 -53.5q0 -2 0.5 -4t0.5 -4q2 2 4.5 3t4.5 4l51 83.5
t53 81.5q32 45 65 87l67 84q13 17 19.5 17.5t22.5 -10.5q5 -3 9.5 -5t11.5 -3zM399 271v-1v1zM367 206q3 0 5 0.5t5 0.5q-2 10 -2 16q-2 -2 -3 -4l-2 -4q-2 -2 -2 -4.5t-1 -4.5zM403 270l2 1h-5q1 -1 3 -1zM416 299q0 -1 0.5 -1t0.5 -1v2h-1zM506 42q7 10 9 20.5t2 21
t-1 21.5t1 22h-1q-2 0 -2 1q-3 -3 -3 -6q-2 -20 -2.5 -40t-2.5 -40zM515 148l2 1h2q-1 7 -4 12q0 1 -1 2t-2 3q0 -1 0.5 -1.5t0.5 -1.5t1 -2q1 -5 1 -13zM512 166q7 6 9.5 12.5t0.5 17.5v2q0 -6 -1.5 -11t-3.5 -10q-2 -7 -5 -11zM525 206q0 3 1 4q0 1 -0.5 1t-0.5 1v-3v-3z
M526 236l2 4v3q-2 -2 -2 -4v-3zM103 269q0 -2 -1 -2v3h1v-2v1z" />
    <glyph glyph-name="n" unicode="n" horiz-adv-x="414" 
d="M22 220q13 83 23.5 165.5t30.5 163.5q2 8 4.5 14.5t4.5 14.5q9 24 20 28.5t34 -9.5q5 -2 9 -13q1 -1 -0.5 -2.5t-0.5 -2.5q10 -11 11.5 -22t-1 -22t-7 -22t-5.5 -22q-4 -23 -10.5 -46.5t-12.5 -47.5q-2 -5 -3 -11.5t-3 -12.5q-13 -35 -17.5 -72t-9.5 -74q-1 -6 1 -16
q2 3 4.5 5t4.5 6l51.5 84.5t48.5 86.5q17 34 37.5 63t46.5 53q23 21 48 38.5t48 36.5q9 8 18.5 7t19.5 -3q11 -2 17.5 -6.5t4.5 -17.5q0 -2 4 -4.5t6 -5.5t4 -7t1 -8q-7 -24 -13 -48.5t-14 -47.5q-15 -45 -26 -85.5t-18.5 -80.5t-11.5 -81t-6 -88q-1 -12 -0.5 -24t1.5 -23
q4 -12 -0.5 -16.5t-15.5 -4.5h-3q-38 -4 -52.5 8t-12.5 52q0 11 0.5 16.5t1.5 10t3.5 9.5t6.5 16l1 -1l10 54.5t8 53.5q7 47 10.5 93t15.5 92q1 5 0 9t-1 9h2l-1 -1l-23.5 -21t-22.5 -22q-117 -129 -184 -290l-8 -21t-9.5 -27l-8.5 -27.5t-6 -21.5q-2 -5 -3.5 -11.5
t1.5 -9.5q7 -9 7 -14t-4 -8t-9.5 -4.5t-9.5 -4.5q-4 -2 -7.5 -3t-7.5 -3q-35 -10 -49.5 1t-12.5 46q1 15 4.5 35l7 41.5t7.5 41.5l7 34q2 12 5.5 24t8.5 24l-2 1h1l1 -1v0z" />
    <glyph glyph-name="o" unicode="o" horiz-adv-x="367" 
d="M50 310l-5.5 -5.5t-4.5 -7.5q-21 -76 -8 -156q3 -11 4.5 -22.5t2.5 -22.5l1 -1q-18 12 -24.5 29t-11.5 37q-9 38 -6 76t13 76q17 68 48.5 126.5t86.5 103.5q29 25 63.5 37t73.5 3q15 -3 29 -11.5l27 -16.5q7 -3 11.5 -8.5t-0.5 -14.5q-5 -8 -10.5 -13.5t-15.5 -4.5
q-2 1 -3.5 1t-3.5 1q-20 11 -35.5 2.5t-28.5 -21.5q-51 -48 -82.5 -108t-48.5 -127q-8 -30 -10.5 -60t2.5 -60q2 -6 2 -11.5t2 -11.5q5 -17 9 -26t10 -10.5t14.5 4t22.5 17.5q32 28 49.5 64.5t31.5 74.5q17 46 17.5 91.5t-18.5 91.5q-9 18 10 18q24 -2 42 -12t25 -36
q11 -32 14 -63.5t-6 -62.5q-11 -50 -31 -94.5t-55 -80.5q-21 -21 -45 -34t-53 -16q-14 -2 -29 0.5t-29 10t-25.5 20.5t-17.5 32q-25 77 -13 155l4 24.5t4 23.5q1 6 1 12t1 13q9 2 7.5 8t-3.5 12q1 1 3 6q1 -2 4 -5q-5 0 -7 -1q-1 -5 -1.5 -11t-1.5 -11q-1 -6 -1.5 -12
t-0.5 -12z" />
    <glyph glyph-name="p" unicode="p" horiz-adv-x="509" 
d="M489 416q2 -24 3 -47t-2 -46q-14 -82 -80 -116q-58 -31 -118.5 -47t-125.5 -14q-10 0 -16 -0.5t-9 -3t-4.5 -8t-3.5 -16.5l-10 -65.5t-9 -64.5q-3 -24 -24 -24h-13t-13 1q-19 2 -27 11.5t-8 29.5q0 19 1 37t5 36l21.5 132t24.5 131q8 42 22 84.5l27 84.5q3 14 0 18
t-15 -1q-18 -6 -35.5 -14l-35.5 -16q-10 -5 -16 -13t-7 -21q-1 -3 -3 -5.5t-4 -5.5q-3 3 -6 5t-5 5q-10 15 -7 30t12 28l15 16.5t16 13.5q49 28 100.5 42t107.5 5q33 -4 64.5 -15t60.5 -27q-3 5 -6.5 10t-7.5 8q-56 33 -113.5 46.5t-119.5 3.5q-2 -1 -5 0l-6 2q2 2 4 5.5
t5 4.5q27 12 55 13.5t56 -3.5q101 -13 182 -85q32 -29 51 -64t22 -81zM376 554q3 -3 7 -3q2 -1 6 -1q-1 1 -2 2.5t-2 1.5h-9zM432 355q20 17 21 28.5t-14 32.5q-35 48 -82.5 74.5t-103.5 38.5q-25 6 -31 -22q-5 -20 -11 -41t-11 -42l-21 -92l-20 -92q-5 -17 0 -20.5t25 -3.5
q17 5 37 9.5t41 10.5q43 11 83.5 27t76.5 43q2 3 4 11q-2 0 -8 -2l-52 -20l-53 -20q-8 -4 -16 -5t-16 -3q-2 -1 -4.5 -0.5t-5.5 0.5q2 2 5 3t5 3l42 18t42 20l34 20t33 24zM188 322h3l-2 -3z" />
    <glyph glyph-name="q" unicode="q" horiz-adv-x="377" 
d="M160 572q2 2 4.5 4t4.5 4q0 -4 2 -8l1 1h-6.5t-6.5 1zM182 589v4q0 -2 1 -3zM160 572h-1v2zM303 -253q-2 -11 -4.5 -20.5l-5.5 -20.5q-1 -4 -4 -8.5t-7 -4.5q-27 -13 -42.5 -2t-15.5 41q0 32 -1 65.5t-1 65.5q1 46 1.5 91t1.5 92q1 2 -0.5 5.5t-2.5 6.5q-4 -2 -10 -6
q-28 -28 -75 -33q-15 -2 -28.5 0.5t-26.5 11.5q-7 4 -14 7.5t-15 3.5q-20 2 -31 13.5t-16 30.5q-9 23 -11.5 47t-0.5 48q24 220 160 387q1 2 5 4q0 -3 -0.5 -6t-0.5 -5v1q3 3 6.5 5.5l7.5 5.5q2 4 5 8t6 9l-1 -1l28.5 29.5l28.5 29.5q20 21 42.5 23.5t47.5 -8.5q9 -5 19 -10
t18 -12q4 -3 5.5 -10t0.5 -12q0 -2 -6.5 -5t-11.5 -2q-16 5 -25.5 -2t-18.5 -17q-68 -72 -111.5 -156t-69.5 -178q-9 -34 -13.5 -69t-1.5 -70q2 -11 5 -20.5t6 -20.5q2 -10 6.5 -11t9.5 5l25 32t23 32q24 44 41.5 89.5t25.5 93.5q5 25 12.5 49t14.5 50q1 13 13 12
q13 -2 26 -2.5t25 -4.5q17 -5 21.5 -14.5t1.5 -27.5l-16.5 -131.5l-16.5 -131.5v-12zM36 183q1 45 10.5 87t21.5 84q-1 0 -1 1v-2q-16 -24 -22.5 -51.5t-11.5 -53.5q-5 -35 -8.5 -71t2.5 -72q2 -9 5 -17.5t7 -16.5q1 -3 4.5 -5t7.5 -4q0 3 0.5 7t-1.5 6q-8 27 -11.5 54
t-2.5 54zM270 -131q2 2 3 3.5t3 2.5q-1 5 -2 6q-1 -2 -2.5 -3.5t-1.5 -3.5v-5zM284 -100v1h-1zM278 -46q8 18 15 36.5l14 37.5q5 17 6 34q2 23 3 45t3 46l9 78l-1 3l1 -3q-3 -2 -6.5 -3t-4.5 -4l-12 -33t-9 -34q-7 -38 -11.5 -76.5l-9.5 -77.5q-2 -11 -3.5 -23.5t-1.5 -25.5
q-1 -3 0 -5.5t2 -4.5q2 2 3.5 4.5t2.5 5.5z" />
    <glyph glyph-name="r" unicode="r" horiz-adv-x="484" 
d="M570 645q27 -8 34.5 -31t-10.5 -50q-11 -18 -25.5 -35t-30.5 -31q-51 -49 -108.5 -88.5t-119.5 -75.5q-15 -10 -32 -17.5t-33 -15.5q-14 -8 -15.5 -14.5t9.5 -16.5l77.5 -66.5l78.5 -68.5q9 -7 19 -13.5t18 -14.5q3 -2 4 -5t3 -7q-6 -3 -9.5 -8l-7.5 -10.5t-8.5 -9.5
t-12.5 -5q-9 0 -14 -5q-10 -11 -19.5 -9.5t-19.5 9.5l-68.5 54l-68.5 56l-25 21.5l-24 20.5q-9 9 -12.5 8t-5.5 -13q-9 -29 -16 -59t-13 -60q-5 -20 -8.5 -40t-7.5 -40q-1 -5 -1 -10.5t-2 -10.5q-8 -10 -19 -13q-1 0 -5 4.5t-6 8.5q-4 5 -4 11q-2 -5 -6 -7q-5 -15 -11 -19
t-20 -1q-23 4 -24 30q0 3 0.5 5t-0.5 0q6 85 20 164t30 157q2 6 2.5 13t2.5 13q5 14 3 24.5t-17 21.5q-23 16 -26.5 36.5t12.5 42.5q14 20 30.5 37.5l33.5 34.5q8 8 14.5 16.5t9.5 19.5q5 21 10.5 40.5t13.5 38.5q5 15 10.5 18t17.5 1q11 -2 14 -8.5t2 -20.5l-4 -12t-2 -14
q0 -3 1 -7t2 -7q3 2 8 3.5t7 4.5q3 7 5 13.5t5 13.5q2 6 4.5 12t7.5 10q9 7 18 5.5t15 -13.5q5 -10 9.5 -10t11.5 3q38 17 76.5 29.5t78.5 20.5q16 2 31.5 3t31.5 -1q22 -2 39 -13t24 -34q4 -12 17 -14zM62 19q0 2 2 4l-2 3v-1v-6zM70 74q2 5 2.5 10t1.5 10v1q-5 -12 -5 -20
zM75 100q0 1 0.5 1.5t0.5 1.5l-1 2v-5zM80 128q2 5 2 10t2 10q0 1 1 1t2 2q-8 -2 -7 -8t-4 -11q0 -2 4 -4zM88 153q2 14 6 28q-11 -5 -11 -12.5t5 -15.5zM94 181q0 2 0.5 5t-0.5 6q0 3 -1 7t-2 7q1 -7 1.5 -13.5t1.5 -11.5zM101 240l-2 -4q-1 -1 -1 0q-1 -2 -1 -7h4v11z
M129 351l16.5 67.5t16.5 68.5q0 2 -3 8q-2 -2 -4 -3.5t-4 -3.5q-1 -3 -1 -6t-1 -5q-8 -31 -15 -62.5t-12 -62.5q-1 -2 0 -4t1 -4q2 2 3.5 4t2.5 3zM549 607q-2 5 -6 11q-4 -6 -5 -11h11zM525 594q-7 -8 -3 -9t9 -2q1 6 2 11t3 11q-3 -3 -5.5 -6t-5.5 -5zM224 365
q1 -1 1.5 -1t1.5 -1v1q-2 0 -3 1zM226 377v-3v3zM211 404l113.5 85.5l113.5 87.5q11 9 21 19.5l21 21.5q4 5 5 11q-2 0 -5 0.5t-6 -0.5q-26 -7 -50.5 -14.5l-50.5 -15.5q4 4 7.5 8.5t7.5 6.5l44.5 15l43.5 14q13 3 22 15q6 7 5 9.5t-7 3.5q-11 2 -22 3t-22 -1
q-43 -5 -82.5 -20l-79.5 -30q-5 -1 -13 -4.5t-7 -14.5q-1 0 -2.5 0.5t-3.5 -0.5q-3 0 -5 -1q2 1 5 1h6l4.5 4.5t4.5 3.5l70.5 19.5t70.5 20.5q2 0 8 -2q-2 -6 -4 -7q-7 -4 -19 -7h-7l-16.5 -4t-16.5 -5q-8 -4 -14.5 -10t-14.5 -11l-39.5 -21t-39.5 -19q-11 -5 -17 -12
t-9 -17l-16.5 -63l-16.5 -62v-8.5t-1 -8.5q3 2 7 3t7 6zM377 406h1h-1zM403 422h1l-3 6l3 -6h-1zM578 590q5 8 5.5 17.5t-8.5 17.5t-16.5 4t-15.5 -9q11 -3 7 -13v-1l-1 -1v1q-2 -5 -4.5 -9l-5.5 -9l1 -1q-2 -2 -8 -4q8 -7 4.5 -13.5t-8.5 -11.5l-40 -40.5l-40 -40.5
l-30 -33q10 3 14 7q23 17 44 35l42 35q19 15 34 32t26 37zM471 657q-4 -1 -14 -5q-3 0 -5 1q6 4 10 5q2 0 4.5 -0.5t4.5 -0.5zM346 593l1 -1l-1 -1v2zM363 597q2 0 4 0.5t4 0.5q1 0 1 0.5t1 0.5q-1 -1 -1 -2h-9zM540 587l-1 1h3z" />
    <glyph glyph-name="s" unicode="s" horiz-adv-x="339" 
d="M357 607q24 -13 17 -37q-14 -73 -65 -129q-1 -1 -3 -1h-4q7 22 14.5 42.5l15.5 42.5l5 19l-21 -48l-21 -48q-5 -8 -11 -16.5t-11 -17.5q-11 -18 -31 -17q-13 0 -20 7t-2 20q5 16 11 31.5t13 31.5q2 5 3.5 11t3.5 13t-2 7t-8 2l10.5 18t10.5 20q2 3 1 7.5t-1 8.5
q-4 -1 -7 -2t-7 -3q-23 -17 -41.5 -38t-33.5 -44q-26 -38 -43 -79t-32 -84q-4 -9 -1.5 -13.5t13.5 -6.5q32 -4 63.5 -10t60.5 -20l17.5 -9.5t16.5 -10.5q30 -24 40 -54.5t3 -65.5q-6 -29 -25.5 -59t-47 -53.5t-59 -37t-61.5 -10.5q-15 2 -30 1.5t-30 1.5q-20 2 -33 13.5
t-23 27.5q-5 8 -2.5 13.5t11.5 5.5l22 -2t22 -6q17 -7 30 3q38 31 62 69.5t26 88.5q1 17 -3.5 31.5t-16.5 26.5q-11 9 -19.5 10t-19.5 -8q-5 -5 -9.5 -10t-10.5 -8t-12 -3.5t-11 -4.5q-10 -8 -19.5 -7t-18.5 6q-10 8 -16.5 16.5t-4.5 22.5q14 85 45.5 163t89.5 144
q19 19 39 36q27 29 59.5 34t67.5 -8q9 -3 13.5 -5.5t8.5 -5t8.5 -6t13.5 -7.5zM254 187q-2 8 -2.5 16t-10.5 12q0 -7 1.5 -13.5t3.5 -13.5l2 -13l6 -8q0 3 2 5q1 1 1 2zM302 434q0 -3 -4 -7h-2q2 4 2 7l4 4q0 1 -0.5 1t-0.5 1h1v-6zM234 508q0 6 2 7q1 2 2 2t2 1v-4
q-1 -2 -3 -3t-3 -3zM241 519l-1 -1v2h1v-1zM359 579q2 0 2 2z" />
    <glyph glyph-name="t" unicode="t" horiz-adv-x="170" 
d="M633 786q2 -1 2.5 -6t1.5 -9q-6 -3 -15 -3q-30 1 -60.5 2.5t-61.5 0.5q-66 -4 -130 -9l-130 -10q-12 0 -19 -1t-11 -4.5t-6.5 -10.5l-6.5 -19q-34 -131 -64 -260t-50 -262q-6 -35 -7 -71t-3 -71q-2 -8 2 -15q3 -20 0 -24.5t-23 -8.5q-20 -3 -33.5 5.5t-16.5 28.5
q-3 25 -5.5 49.5t-0.5 48.5q2 85 12.5 166t25.5 163q11 60 23.5 120.5l24.5 120.5q0 2 0.5 4.5t0.5 5.5q2 13 -0.5 16t-16.5 -1q-20 -2 -38.5 -5t-37.5 -7l-53.5 -12l-54.5 -12q-11 -3 -20 -4t-17 8q-9 12 -17 24t-7 28q1 17 20 20l88.5 16l87.5 16l36 4l37 4q21 0 27 21
q5 16 11 33l12 34q5 11 11 15t17 -1q14 -5 28 -8t26 -11q16 -8 18.5 -15.5t-2.5 -25.5q-3 -12 -4 -18.5t1 -9t9 -3t19 -0.5q36 1 72 0.5t72 -0.5q16 0 31.5 1l32.5 2l1 -2l-1 2q4 0 7 -3q3 -18 21 -18q25 0 48.5 -0.5t46.5 -3.5q11 -2 20.5 -6t18.5 -9z" />
    <glyph glyph-name="u" unicode="u" 
d="M444 589q15 -3 24 -24t5 -42l-14.5 -58t-12.5 -59l-23 -148.5t-21 -149.5q-4 -29 -4.5 -59.5t-2.5 -60.5q-1 -5 -2.5 -10.5t-3.5 -6.5q-17 -2 -33.5 -4.5t-32.5 -2.5q-13 1 -19.5 10.5t-6.5 22.5q-3 17 -5.5 35.5t-1.5 35.5q3 51 7 101l8 101q1 7 -1 14q-3 -2 -5.5 -4
t-5.5 -4l-39 -67l-39 -68q-6 -10 -12.5 -18.5t-12.5 -17.5q-24 -36 -58 -45t-73 -5q-41 5 -49 45q-5 19 -6.5 37t-3.5 37q2 60 14.5 116.5t27.5 113.5l16.5 59.5t18.5 58.5q9 23 30.5 37t45.5 10q9 -2 17 -6.5t16 -9.5q7 -5 7.5 -9t-1.5 -8t-5.5 -7.5t-4.5 -7.5
q-19 -63 -35.5 -126.5t-24.5 -128.5q-4 -23 -5.5 -45.5t-3.5 -45.5q-1 -3 1 -6t3 -7l6 4t5 4l26 39.5l26 39.5l68 104l67 105q11 18 19.5 37.5l16.5 39.5q14 35 36 47.5t57 6.5z" />
    <glyph glyph-name="v" unicode="v" horiz-adv-x="295" 
d="M81 477l10 -102.5l10 -102.5q0 -9 3 -17.5t5 -18.5q4 8 8 15t7 15q66 151 164 280q17 21 36.5 40.5t41.5 38.5q15 14 33.5 15t37.5 -3q11 -2 13.5 -9t-5.5 -12q-46 -39 -77 -88.5t-59 -100.5q-26 -48 -50 -97t-45 -99q-15 -38 -25.5 -76t-19.5 -76q-4 -14 -9 -24t-21 -13
q-9 -2 -18 -4.5t-18 -2.5q-20 -2 -25 18q-26 78 -44.5 157.5t-26.5 163.5q-5 55 -9 109t-2 108q2 23 6.5 28t24.5 6q8 1 15 0.5t13 -1.5q20 -4 25 -9.5t6 -27.5v-110h-5v0z" />
    <glyph glyph-name="w" unicode="w" horiz-adv-x="543" 
d="M34 249q11 6 11.5 16.5t2.5 18.5q9 47 21 92.5t34 88.5l10 16t16 6q28 -5 53 -13v-5q0 -2 -0.5 -4t-0.5 -4q-12 -41 -25 -80.5t-21 -81.5q-10 -39 -14 -79.5t-10 -80.5q-1 -5 1 -10t3 -10q5 2 9 5.5t8 5.5l1 1q1 -3 1 -7v-8q-2 0 -3 0.5t-2 0.5v-1q3 0 4 1l66 111.5
l67 111.5q17 26 31.5 33.5t39.5 2.5q12 -3 15.5 -8t-4.5 -14q-16 -18 -15.5 -37.5t6.5 -39.5q10 -32 19 -66l18 -68q2 -7 6 -14q2 -2 4 -5t4 -5q1 3 2 6.5t0 7.5q-6 21 -11.5 43.5l-11.5 45.5q-5 20 -9 38.5t-9 37.5q-1 3 -2 5t0 4q1 8 2 13.5t3 13.5l6 -10.5t5 -11.5
l14 -49t15 -50q2 -6 5 -11t6 -11q1 7 3 12.5t3 11.5q36 154 95 304q8 19 18 37l20 37q1 3 4 7t7 6q5 2 10 1.5t10 -2.5q1 -1 1 -6.5t-1 -9.5q-11 -29 -23.5 -57.5t-22.5 -58.5q-27 -84 -47 -167.5t-27 -171.5q-1 -11 -2.5 -22.5t-3.5 -23.5q-1 -1 0 -3.5t2 -4.5l4 4t2 4
q2 11 4.5 21t4.5 21q8 70 25 137t38 135q2 8 4.5 16t13.5 10l-8 -24.5l-8 -25.5q-17 -65 -30 -130t-20 -132q-1 -8 -3 -16.5l-4 -16.5q-3 -12 -9.5 -20.5t-20.5 -10.5q-4 -1 -8 -2.5t-8 -3.5q-29 -14 -49 -7.5t-37 33.5q-18 26 -28 54.5t-18 58.5q-2 12 -5 23t-5 21
q-3 12 -10 2q-3 -4 -5.5 -8.5l-5.5 -9.5l-26 -47l-27 -46l-16.5 -28l-16.5 -27q-48 -73 -132 -56q-16 4 -26.5 15t-15.5 26q-10 28 -10 53q0 64 10 126t29 122q0 3 2.5 4.5t4.5 3.5q0 -2 0.5 -5t-0.5 -5q-8 -18 5 -32q-3 -16 -5 -33.5t-6 -34.5q-2 -22 -4.5 -44t-4.5 -44
q-1 -2 0 -4.5t2 -5.5q0 3 1 6l2 6q2 14 3 29t3 29q1 7 -0.5 14.5t-2.5 13.5zM24 109q-1 -1 -2 -1q2 -15 3 -29.5t3 -28.5q1 -1 3 -1.5t3 -1.5q0 2 0.5 2.5t0.5 2.5q-1 14 -2.5 27.5t-4.5 27.5q0 1 -1 2t-1 2zM26 130v-2q0 -1 1 -1t1 2zM122 104l-1 -2h1v2z" />
    <glyph glyph-name="x" unicode="x" horiz-adv-x="418" 
d="M100 499q35 2 55 -27q8 -14 17 -26.5t18 -26.5q10 -16 13 -16t13 15l44.5 66l45.5 65q5 6 9.5 12t10.5 11q8 7 13.5 16.5t21.5 7.5q18 -3 33.5 -9.5t29.5 -18.5q2 -1 2.5 -4.5t-0.5 -6.5q-2 -3 -4.5 -5.5t-4.5 -6.5l-73 -107.5l-74 -107.5q-9 -14 -8.5 -25t8.5 -23
l57 -90l57 -90q9 -15 4.5 -21.5t-17.5 -11.5q-22 -8 -31 -5t-22 24l-44.5 64.5l-42.5 65.5q-10 14 -13 14t-10 -14l-51 -100l-50 -99q-5 -10 -13 -16.5t-17.5 -9t-19.5 -1t-19 8.5q-4 2 -7 5t-7 5q-17 5 -19 8t3 18l25 70.5t29 68.5q18 39 39.5 74.5l41.5 71.5q5 10 5 17
t-5 17q-20 29 -38 58.5l-37 58.5q-10 14 -8.5 17.5t18.5 7.5h10.5t11.5 1zM117 358v-5v5zM202 167h1l-1 -1v1z" />
    <glyph glyph-name="y" unicode="y" horiz-adv-x="306" 
d="M23 66q4 32 5.5 55.5t5.5 46.5q1 9 8.5 15.5t17 9.5t20 2t16.5 -7q2 -9 0 -18q0 -22 -1 -43t-3 -42q-1 -12 2 -25q2 -10 6 -15q3 7 5 13q9 35 16.5 70.5l15.5 70.5q11 48 23.5 94t29.5 91q2 5 3.5 11l3.5 14q1 2 0.5 5t0.5 5q-4 -2 -6 -3.5t-4 -3.5l-37 -61.5l-38 -60.5
l-10.5 -19t-13.5 -14q-14 -5 -29 -5.5t-29 -1.5q-11 0 -18 7.5t-10 18.5q-2 9 -3 18t-1 18q-2 64 9 126.5t25 125.5q7 28 13 56.5t14 57.5q2 8 5 15.5t14 8.5q14 1 28.5 1t25.5 -13q3 -5 3.5 -11.5t-0.5 -11.5l-19 -98t-17 -96q-4 -25 -7.5 -50t-6.5 -51q0 -2 1.5 -3.5
t2.5 -3.5q0 1 1.5 1.5t2.5 2.5q2 5 9 13q35 63 76 120.5t86 114.5q14 17 25 35l23 36q7 11 12.5 17t11.5 8.5t14 1.5t21 -4q11 -3 21.5 -8l21.5 -10q12 -5 4 -16q-32 -44 -53.5 -92.5l-41.5 -97.5q-47 -113 -82 -229.5l-68 -234.5l-13.5 -44t-15.5 -45q-6 -16 -22.5 -26.5
t-33.5 -8.5q-18 2 -30.5 12t-16.5 30q-6 33 -10.5 66t-8.5 59zM225 536l1 1q1 3 2 5.5l3 7.5l4 2t4 3l9 9q-2 2 -2 4v-1q1 0 1 -3q-2 -2 -4.5 -3.5t-4.5 -3.5q-3 -5 -8 -7q-1 -4 -2 -7l-2 -6z" />
    <glyph glyph-name="z" unicode="z" horiz-adv-x="439" 
d="M114 117q8 -2 16 -3.5t16 0.5q54 10 106.5 8l105.5 -4q5 0 10 -0.5t7 -4.5q5 -5 9 -12.5t9 -14.5q-7 -1 -13 -3.5t-13 -2.5q-56 0 -111 0.5t-112 -0.5q-11 0 -21 -0.5t-21 -3.5q-12 -2 -19 -10q-2 -2 -2.5 -5.5t7.5 -3.5h16.5t16.5 2q63 11 123.5 11t123.5 -1
q9 0 18 -1.5t15 -11.5q5 -8 1.5 -12.5t-12.5 -4.5q-42 -2 -84 -3t-85 -3q-38 -2 -74 -5t-72 -7q-16 -2 -26 -8q-12 -6 -23 -4t-20 10q-8 7 -8.5 16.5t5.5 19.5q2 3 2.5 7.5t2.5 6.5l53 80.5l53 80.5q2 5 4.5 7t4.5 6q6 10 11 24q-7 1 -13 1.5t-12 0.5q-3 0 -5.5 -0.5
t-4.5 -0.5q-19 0 -22 22q-3 19 16 20q14 2 28.5 4.5t28.5 2.5q26 0 42 20q39 52 80.5 100.5t86.5 95.5q1 2 2 5t3 6h-12q-61 -15 -119.5 -36.5t-114.5 -53.5q-16 -8 -36 -5.5t-31 16.5q-8 10 -8 21.5t11 19.5l32.5 24.5t35.5 20.5q82 34 163 61q31 8 63 13l65 10
q11 1 24 -2.5t25 -10.5t21 -16.5t14 -20.5q4 -6 0 -11q-7 -9 -14.5 -17.5t-15.5 -18.5l-80 -90l-81 -91q-4 -5 -7 -9.5t-7 -8.5q-6 -7 -3.5 -11t10.5 -4q17 -1 33.5 -1t33.5 -2h10t9 -2q5 -2 10.5 -6t8.5 -9q8 -11 3 -19t-20 -8q-29 1 -57 1t-57 2q-17 2 -28.5 -4.5
t-21.5 -20.5l-54.5 -70l-54.5 -69q2 -2 2 -5l1 -2q-1 2 -1 4t-2 4z" />
    <glyph glyph-name="zero" unicode="0" horiz-adv-x="370" 
d="M-1 155q0 34 7 68t18 69q11 31 16.5 64.5t13.5 66.5q5 23 11 44t11 44q2 11 8.5 17t20.5 3q11 -2 15 2.5t9 13.5q9 22 26 38.5t38 29.5q30 18 59 16t52 -16t37.5 -36.5t15.5 -46.5q2 -60 -3.5 -119.5t-22.5 -117.5q-32 -124 -105 -234q-3 -5 -6.5 -8t-5.5 -8
q-32 -40 -69 -52t-87 2q-20 6 -29 19t-15 28q-17 54 -15 113zM232 595q11 0 19 3q2 2 5 3.5t6 2.5q-3 3 -3 2q-3 -5 -8 -8q-5 -2 -10 -2.5t-10 -2.5zM86 156q3 -22 6.5 -44.5t9.5 -46.5q3 -17 8 -18.5t15 12.5l47 69t44 71q23 41 38 84t26 88q7 28 11.5 51t5.5 44.5t-1 44.5
t-8 52q0 2 -1 5t-3 5q-2 8 -7 10t-12 -3l-32.5 -24t-27.5 -28q-31 -45 -50 -93t-18 -102q0 -9 -3 -15t-14 -4q-10 2 -12.5 -3t-3.5 -12q-5 -35 -9.5 -70t-8.5 -73z" />
    <glyph glyph-name="one" unicode="1" horiz-adv-x="223" 
d="M253 623q2 -2 3.5 -6t-0.5 -6q-11 -22 -11.5 -45.5t-6.5 -45.5q-8 -23 -13 -46.5t-12 -47.5q-5 -23 -11 -44.5t-11 -42.5q-7 -24 -12.5 -47.5t-11.5 -46.5q-5 -23 -11 -46.5t-11 -46.5q-6 -30 -11.5 -60.5t-10.5 -61.5l-3.5 -14t-12.5 -7q-11 -2 -19.5 2.5t-10.5 13.5
q-4 11 -4.5 21.5t-0.5 22.5q0 11 2.5 22t2.5 22v10.5t-2 11.5l-9.5 -41l-9.5 -41q-1 -8 -1 -16.5t-10 -7.5q-11 1 -11 10.5v17.5q5 34 9 68t10 68q11 59 23 116.5l25 116.5q0 4 2 6t2 4t-1.5 4.5t-2.5 6.5q-2 -1 -4 -1t-4 -2q-8 -6 -16.5 -11t-16.5 -11q-22 -16 -45 -2
q-11 8 -13 14t7 17l58.5 63l60.5 63q12 13 25 25.5t26 26.5q5 6 11.5 11t16.5 3l25.5 -6t20.5 -14zM77 139q7 12 8 26t1 28q-2 -13 -4.5 -26.5t-4.5 -27.5zM98 242q1 4 -1 8q-2 -2 -2.5 -3.5t-1.5 -3.5q-2 -10 -2.5 -20t-1.5 -20q2 10 4.5 19.5t4.5 19.5zM103 271q0 2 1 4
t1 4h-1q-2 0 -2 1q-2 -2 -3 -6l1 -1q2 -2 3 -2zM110 300q1 3 1 8l3 3q0 -1 -1.5 -1t-1.5 -1q-1 -2 -1 -9zM114 312v1v-1zM119 361q2 -1 3 -1q0 2 -1 3h-1zM129 388q-1 0 -1.5 -0.5t-1.5 -0.5v-2q0 -1 1 -1l2 2v2zM140 431v2l-2 -3z" />
    <glyph glyph-name="two" unicode="2" horiz-adv-x="430" 
d="M437 590q-5 -11 -8.5 -20.5t-8.5 -17.5l-44 -69.5t-47 -68.5l-94 -127l-95 -126q-6 -7 -9 -14.5l-6 -14.5q8 2 15.5 2.5t15.5 1.5l83.5 17.5t82.5 15.5q32 4 49.5 -6.5t31.5 -42.5q7 -14 5 -17.5t-17 -5.5q-34 -8 -68 -14.5t-68 -14.5q-47 -14 -92 -29t-89 -37
q-9 -6 -26 -8q-11 -4 -12.5 -2t0.5 17q0 1 0.5 4t-0.5 5q-5 2 -8.5 7.5l-7 11t-9.5 8t-16 -1.5q0 -1 -2.5 1.5t-3.5 6.5v4.5t2 3.5q12 6 18.5 15t10.5 19.5t7.5 21.5t8.5 21q26 48 55 92l60 87q2 5 6 8t6 6q4 8 3.5 11.5t-8.5 4.5t-15 1t-13 1q-42 7 -55 28.5t14 60.5
q44 63 100 110t120 85q23 14 43.5 9.5t42.5 -11.5l13.5 -6.5t12.5 -10.5q5 -4 8 -10.5t8 -11.5zM297 528q-6 -6 -13.5 -10.5t-12.5 -9.5q-32 -27 -60 -55t-50 -62q-3 -3 -6 -8.5t-2 -7.5q7 -3 13.5 -7t14.5 -6q2 -2 6 2t6 8l49.5 68.5l48.5 68.5q2 3 2.5 8t2.5 11h5h-1h-3z
" />
    <glyph glyph-name="three" unicode="3" horiz-adv-x="417" 
d="M453 585q3 -2 3 -7t-3 -9q-8 -19 -20 -34l-69.5 -89.5l-67.5 -89.5q-4 -3 -6 -7t-6 -7q-12 -16 5 -20q2 -1 3.5 -1.5t3.5 -1.5q17 -7 29 -18.5t15 -32.5q0 -4 9 -7v-5q2 2 4.5 2t5.5 2h-10v1v-1v1h13v-1q22 -10 29 -24.5t0 -38.5q-2 -12 -6 -19q-38 -69 -89.5 -117.5
t-129.5 -67.5q-17 -4 -34.5 -4t-34.5 6q-14 7 -29.5 11.5t-28.5 11.5q-35 14 -49 51q-2 5 -1.5 10t0.5 10q5 -1 10 -1t8 -2q22 -17 43 -15t44 13q58 31 102.5 75t77.5 101q4 6 6.5 13t-5.5 15q-7 5 -18.5 3.5t-17.5 -9.5q-10 -13 -18 -25.5l-16 -25.5q-9 -15 -18 -17.5
t-25 6.5q-8 6 -15.5 9.5l-16.5 7.5q-14 6 -17.5 18t7.5 24l20 26.5t19 27.5l54.5 80l54.5 80q-6 -2 -13 -3.5t-12 -4.5l-50.5 -32l-47.5 -32q-12 -9 -19.5 -13t-14 -4.5t-14 3t-19.5 11.5q-5 2 -9.5 1.5t-8.5 1.5q-18 4 -23.5 19t8.5 29q8 9 16.5 16.5t18.5 15.5
q56 45 117 77.5t128 58.5l18 7t19 -9q0 -2 8 -2q16 3 27.5 -0.5t21 -11.5t17.5 -17.5t17 -18.5zM61 26q3 3 4 3q-2 2 -4 2t-2.5 -0.5t-1.5 -0.5h-1q0 -1 5 -4zM94 30q3 1 5.5 4t5.5 5h-12q-2 -1 -4 -3.5t-4 -4.5q2 0 4.5 -1t4.5 0zM129 45q1 1 4 1l-2 3q-1 -3 -2 -4z
M309 151q-10 -17 -22 -33.5l-23 -32.5l-4 -8q2 1 4.5 0.5t3.5 1.5q29 28 51.5 58.5t33.5 69.5q2 12 2 24.5t-8 21.5q-8 2 -10 -2t-2 -10q2 -26 -5.5 -48t-20.5 -42z" />
    <glyph glyph-name="four" unicode="4" horiz-adv-x="420" 
d="M433 541q-6 -35 -11 -68.5t-13 -67.5l-22 -107.5l-22 -107.5q0 -2 -4 -8q0 2 -0.5 4.5t-1.5 6.5q-12 -6 -10.5 -17.5t0.5 -20.5q-1 -1 -1 -2t0.5 -2t0.5 -3h-1q-8 -33 -12 -66.5t-1 -67.5q2 -13 -2 -16t-14 -4q-43 -4 -59 11t-14 58q1 45 5 89.5t9 89.5q1 8 1 17v19
q-9 -3 -17.5 -5t-18.5 -6q-37 -16 -71.5 -37t-67.5 -45q-15 -11 -34.5 -11t-33.5 12q-27 22 -11 56q14 24 27 49.5t29 50.5l94.5 143.5l95.5 143.5q2 3 6 6.5t7 2.5q20 -2 38 -8t29 -27q2 -5 4.5 -6.5t8.5 3.5q10 10 27 9t32 -10q13 -8 15.5 -19t-2.5 -30q-9 -22 -12 -50
q-1 -2 0 -4.5t2 -5.5q2 2 3.5 4t2.5 4l6 22t5 22q1 4 8 7v-8zM308 528h1v1zM299 513q-1 0 -1 -2h4q0 2 -1 4zM291 498v-3q2 2 2 3h-2zM310 482q1 2 0 3.5t-1 3.5q-5 -1 -7 -5q-13 -20 -24 -39.5t-24 -39.5q-11 -17 -24 -33l-25 -32q6 12 11.5 24.5t14.5 23.5q11 20 23 39
t23 40q3 2 3.5 6t1.5 8q-3 -3 -6 -4.5t-5 -5.5l-47 -72.5l-46 -74.5q-4 -3 -5.5 -7.5t-3.5 -9.5q4 2 8.5 4.5t9.5 4.5q5 5 7 6q2 -1 2.5 -2.5t1.5 -1.5q17 5 34 11t32 13q3 1 6 5.5l5 7.5l17.5 63.5zM315 544v-1v1zM361 239q0 -2 1 -3.5t3 -3.5v5q0 4 -2 10h-1q-1 0 -1 -1
v-7zM364 231q-11 -8 -10 -17.5t5 -19.5q2 10 3 18.5t2 18.5zM365 265q0 3 2 7q1 1 1 4q-3 0 -5 -2q0 -2 0.5 -3.5t1.5 -5.5zM370 278v3t1 4h-5q1 -2 1.5 -4t2.5 -3zM370 308q1 1 1 2v2q-1 -2 -1 -4zM399 455q0 -2 -0.5 -6t0.5 -9q0 -1 1.5 -2.5l3.5 -3.5q0 5 -1 8v17
q-4 -3 -4 -4zM390 394q1 2 1 7q0 1 -3 4q-1 -3 -1 -9q0 -1 1 -1t1 -0.5t1 -0.5zM400 430q4 3 4 4h-5q-3 -2 -4 -4.5t-3 -4.5q0 -1 2 -3q1 2 3 3.5t3 4.5zM406 470q1 1 1 2v2h-3zM349 155q1 2 3 4.5t4 4.5q1 4 2 7t3 7q0 -10 -1.5 -17.5t-10.5 -12.5v7v-1v1zM361 181v1v-2v-2
v3z" />
    <glyph glyph-name="five" unicode="5" horiz-adv-x="381" 
d="M398 612q11 -1 13.5 -7.5t1.5 -11.5t-8.5 -9.5t-12.5 -4.5q-19 0 -37 1l-37 2q-34 2 -67.5 3t-67.5 3q-21 2 -26 -16q-6 -19 -11 -36.5t-10 -37.5v-9q7 0 8 1q9 4 14.5 9t7.5 14q4 12 6.5 24t5.5 25q1 2 4 3t5 3q0 -2 1 -3.5t1 -3.5q-2 -10 -3.5 -19.5t-4.5 -17.5
q-2 -16 13 -13q34 3 63 -7.5t56 -26.5q25 -14 35 -34.5t11 -44.5q1 -30 -2 -61t-5 -60q0 -5 -2 -5q-11 -10 -17 -21.5t-10.5 -24t-8.5 -25t-11 -23.5l-6 -9q1 3 0.5 6t0.5 5q20 52 30.5 105.5t5.5 109.5q-1 15 -6 29.5l-10 29.5l-6 4q-2 -6 -1 -8q17 -52 8.5 -101t-27.5 -98
l-10 -32.5t-12 -33.5q-12 -35 -29 -67q-8 -17 -17.5 -33t-17.5 -34q-5 -15 -15 -19.5t-25 -2.5q-14 2 -13 -6q2 -11 -5 -13t-12 -6q-28 -13 -55 -2q-32 13 -53 39t-28 56.5t1 62t32 55.5q7 6 22 9t23 -4q2 -1 3 -4t-1 -5q-2 -3 -4 -7l-4 -8q-20 -29 -20.5 -57.5t11.5 -57.5
q1 -5 3 -9t4 -7q11 -17 19.5 -18.5t23.5 14.5l32.5 40t29.5 43q33 58 53 121.5t25 129.5q0 26 -3 52q-1 11 -6 12t-13 -4q-7 -3 -13 -7.5t-13 -8.5q-5 -4 -12 -6l4.5 4.5t4.5 6.5q5 5 10 8.5t8 8.5l5.5 5.5l5.5 5.5h-10.5t-9.5 -1q-21 -6 -38.5 -17.5t-24.5 -35.5
q-1 -2 -5 -4.5l-7 -4.5q0 4 -2.5 7t-7.5 -2q-11 -11 -20.5 -22.5t-20.5 -22.5q-8 -11 -21 -13.5t-23 3.5q-8 3 -12.5 14.5t-0.5 22.5q5 17 11 34.5l12 35.5l18 49t16 50q6 15 3.5 19.5t-20.5 3.5q-4 0 -9.5 -0.5t-8.5 -0.5q-16 0 -25 12t-4 26q6 13 21 13q42 -1 84.5 -1.5
t84.5 -3.5q47 -3 93 -8.5t94 -12.5zM110 10q2 0 5 1.5t6 1.5q0 1 -0.5 2t-0.5 3h-12q-6 -4 -10 -8h12zM345 279q-2 -1 -4 -3l2 -2q3 1 4 4q-1 0 -1 0.5t-1 0.5zM201 7q11 11 23.5 22l24.5 22q3 2 7 3.5t9 4.5l-13 -15t-14 -14t-15.5 -15t-21.5 -8zM266 59h-1h1zM200 7h1v-1z
M272 122q1 1 1 2q0 -1 -1 -2q0 -2 1 -2q-1 0 -2 1zM275 127q2 0 2 4l1 -1q-1 -1 -1 -2v-1q-4 -1 -4 -3q0 1 2 3zM326 201v-2h-1zM264 79q3 3 4 3q1 1 5 1q0 -1 -0.5 -3t-2.5 -2q-4 0 -6 1zM263 79h1v-1zM136 409v-1v-2v3zM131 389q2 4 3.5 8.5t1.5 8.5q1 -3 1 -7.5t1 -9.5
h-7zM288 150q0 1 1 2h2q0 -1 -1 -2h-2zM266 59q-1 7 -1.5 11t-1.5 9l1 -1q1 -5 1.5 -9t0.5 -10zM201 6q-1 -3 -5 -4q3 1 4 5zM138 388v1h1v-7h-1q-2 -5 -5 -8.5t-5 -8.5q1 5 1.5 10t0.5 10q1 2 1 3v1v-1q3 -1 4 -2.5t3 -2.5v5zM332 217h1l-1 -2v2zM284 110v2v-4q0 2 -1 4h1
v-2z" />
    <glyph glyph-name="six" unicode="6" horiz-adv-x="392" 
d="M183 627q4 -6 7.5 -10t12.5 2q4 2 8 4.5t9 4.5q21 17 38.5 18t41.5 -13l13.5 -9t8.5 -13q3 -8 -4.5 -13t-17.5 -7q-5 -1 -9 -5.5t-7 -7.5q-34 -45 -56.5 -94.5t-40.5 -101.5q-2 -2 0 -5.5t4 -6.5q4 2 7 5q32 22 63.5 23.5t64.5 -15.5q41 -23 42 -62q0 -20 -1 -39.5
t-5 -37.5q-11 -47 -30 -90t-42 -85l-9.5 -15l-9.5 -15q-27 -34 -63.5 -44.5t-79.5 -2.5q-5 1 -10 2.5t-10 1.5q-41 1 -62.5 24.5t-35.5 54.5q-9 20 -11.5 43t-0.5 46q5 108 34.5 206.5t89.5 191.5q10 15 23 29l27 30q2 2 5.5 3t6.5 3h-1zM52 124q0 -8 -0.5 -15t-0.5 -15l1 2
v27q-2 6 -5 13q0 8 -1 15.5l-2 15.5q0 -9 -1 -17t-1 -16q4 -6 10 -10zM300 313q-1 0 -2 0.5t-3 0.5q0 7 0.5 13t-0.5 14q-2 12 -7 14.5t-17 -4.5q-12 -6 -17 -12q-46 -34 -67 -86l-8.5 -14.5t-15.5 -7.5q-13 1 -16.5 -5t-3.5 -15l-2 -61t0 -61q0 -10 4 -18t8 -17l16 11.5
t12 12.5q18 27 34.5 55l32.5 55l4 8t3 3q15 -2 18 7.5t5 14.5q7 23 11.5 46t10.5 46zM59 73q0 2 -1 2q-1 -1 -1.5 -2t-1.5 -2l2 -2zM220 596h5q-1 0 -2 1q-1 -1 -1.5 -1t-1.5 -1v1zM215 588q1 2 3 3.5t2 3.5v1q-1 -3 -7 -7zM292 146q0 1 1 1v2q-1 -1 -2 -1q0 -1 1 -2z" />
    <glyph glyph-name="seven" unicode="7" horiz-adv-x="408" 
d="M162 89q-6 0 -9 -1.5t-5 -9.5q-2 -20 -7 -38t1 -38q3 -8 -1 -11t-11 -3q-51 3 -53 50q0 11 1 22t3 21q7 50 18.5 97.5t34.5 93.5q1 3 2.5 5.5t1.5 5.5q5 14 1.5 19t-19.5 5q-15 -1 -32 -2.5t-34 -2.5h-7t-4 2q-5 8 -11.5 14.5t-14.5 11.5q-7 5 -2 14.5t13 11.5q9 3 19 4
t19 3q21 2 42 3l42 2q11 1 14.5 5t6.5 15q8 26 18.5 50t22.5 47q8 15 17.5 29t17.5 28q3 5 5.5 10t4.5 10h-21q-38 -7 -75.5 -12.5t-75.5 -9.5q-18 -4 -36 -3.5t-35 0.5q-8 0 -10 5l-12 22.5t-9 22.5q-3 9 3.5 14t18.5 7l152 12.5t152 14.5q22 2 44 5t44 5q17 2 30.5 -8.5
t14.5 -27.5q0 -3 -3.5 -7.5t-7.5 -5.5q-16 -4 -24 -13t-16 -21l-48 -90.5l-49 -89.5q-3 -8 -1 -12.5t13 -6.5h10.5t10.5 -1q7 -2 17 -2.5t13 -5.5q8 -9 11 -21.5t6 -23.5q0 -2 -4 -5.5t-7 -4.5q-22 0 -40 3q-7 1 -13 1.5t-12 0.5q-13 1 -21 0.5t-13 -3.5t-8.5 -10t-8.5 -19
q-23 -57 -43.5 -114.5t-32.5 -118.5q-2 -11 -1.5 -20t-0.5 -18q0 -7 -6 -8q-2 -1 -4.5 1t-4.5 4q-2 5 -3 10t-1 10q-1 18 1.5 36t9.5 35q2 8 3.5 15.5t2.5 16.5v25q2 3 5 6t5 8q4 8 6 18t5 18l15.5 47t13.5 47q1 3 0.5 8t-1.5 6q-8 2 -9.5 -2.5t-3.5 -9.5l-10 -29t-9 -28
l-13 -44.5t-4 -45.5q-11 -14 -13.5 -28t8.5 -28zM373 579q-3 3 -6 3q-22 0 -32 -18q-28 -38 -49 -77.5t-39 -82.5l-4 -12t-4 -13q-2 -3 -0.5 -5t2.5 -4q2 1 5 1t5 2q3 2 4.5 5.5t3.5 6.5l8 19.5l9 20.5q23 34 43.5 68l41.5 69q3 3 6 7.5t6 9.5z" />
    <glyph glyph-name="eight" unicode="8" horiz-adv-x="312" 
d="M319 580q8 -1 15.5 -1t15.5 -2q9 -4 18.5 -9t20.5 -7q20 -6 3 -21q-52 -58 -98.5 -118t-85.5 -127q-8 -14 -11.5 -22t-2 -14t8 -12.5t20.5 -17.5q20 -14 34.5 -30t17.5 -38q1 -14 0.5 -27t-4.5 -26q-16 -57 -63 -96q-15 -13 -31 -19.5t-36 1.5q-8 2 -20 -2
q-38 -9 -61.5 3t-39.5 47q-9 24 -9 47.5t4 47.5q7 32 18.5 62t25.5 59q4 7 6 11.5t1.5 7.5t-4 6.5t-9.5 8.5q-2 0 -4 2q-48 40 -54 82t29 93q36 52 92 84q48 27 97.5 46t103.5 30q13 2 25.5 2t22.5 -11q0 1 3 -2l2 -2q9 -5 19 -7q-6 -2 -11.5 -4.5t-11.5 -4.5q-9 -3 -19 -5
t-21 -5q-2 -1 -3 -4.5t-4 -5.5q-6 -1 -12.5 0t-11.5 -1q-11 -3 -21 -7l-20 -8q-40 -17 -76 -39t-65 -54q-4 0 -6 1l-15.5 -19t-13.5 -20q-20 -29 -17.5 -53.5t26.5 -46.5h-2l1 -2h7.5t5.5 2q4 5 6.5 9l5.5 9q38 59 82 112t98 101q6 5 13.5 8t14.5 8zM190 336q2 4 2 7t2 5
t3.5 2.5t3.5 1.5q1 1 1.5 2t1.5 2q-2 -1 -2 -1.5t-1 -1.5q-2 -1 -3.5 -2t-3.5 -3t-2.5 -5.5t-2.5 -7.5l1 -2v3zM179 310q-8 -2 -10.5 -7t-1.5 -11q-2 -3 -4.5 -4.5t-4.5 -4.5q1 0 3 -3q2 3 3 5.5t3 3.5l-1 2v1q4 5 7 9.5t6 9.5v-1zM250 178q-4 4 -3 4l3 -3q-1 -11 -1 -21.5
t-2 -21.5q-8 -35 -28 -62.5t-47 -50.5q-4 -3 -6 -7t-4 -7q5 1 9 1t9 2q5 1 7 3.5t5 4.5q28 20 45 46.5t23 58.5q2 14 1 27.5t-11 25.5zM130 83q0 -12 1 -15q0 -6 4 -12q2 2 5 3t5 4q9 15 20 30t19 32q6 17 4.5 35t-13.5 34q-2 3 -5 4.5t-5 3.5q-3 -3 -7 -9
q-11 -29 -18 -55.5t-10 -54.5zM92 89q2 -11 3 -23t4 -24q0 -2 2.5 -3.5t4.5 -3.5q2 6 4 10q1 1 -2 6q-3 31 0 62.5t14 63.5q5 9 7.5 18.5t6.5 19.5q1 2 0 4t-1 5q-4 -2 -7 -5q-4 -3 -6 -8q-11 -31 -19.5 -60.5t-10.5 -61.5zM102 447h-8h8z" />
    <glyph glyph-name="nine" unicode="9" horiz-adv-x="321" 
d="M0 339q-2 29 12 54t31 47q36 48 78.5 88t93.5 74q20 13 40 22.5t46 5.5q22 -2 37.5 -15.5t14.5 -34.5q-2 -23 -6.5 -45t-10.5 -45l-66 -218.5t-77 -217.5v-7q-7 -14 -13 -22.5t-14.5 -13t-20 -5t-28.5 2.5q-17 1 -22 12t4 24q9 10 10 18q19 52 35.5 102l33.5 100
q0 2 0.5 3.5t0.5 3.5v16q-4 -1 -7.5 -2.5t-6.5 -2.5q-45 -20 -90.5 -14.5t-80.5 35.5q-5 4 -8.5 8t-5.5 9q-2 4 -3 8.5t-3 9.5q3 -4 4.5 -7.5t3.5 -6.5l3 -3l3 -3q3 -2 6 -2.5t7 -2.5q0 2 1 5t1 5q0 4 -1 7t-2 8zM84 344l2 -1q0 -3 -0.5 -6t0.5 -6q1 -8 4.5 -10.5t12.5 2.5
q2 1 3.5 1.5t3.5 2.5q43 30 74.5 68.5t61.5 80.5q14 19 20 43t14 47q2 5 -1 8q-4 2 -9 0q-8 -3 -13 -10q-21 -17 -41.5 -35.5t-40.5 -38.5q-23 -21 -42.5 -46t-32.5 -55q-6 -11 -9 -22.5t-7 -22.5z" />
    <glyph glyph-name="dollar" unicode="$" horiz-adv-x="305" 
d="M256 307q17 -24 25.5 -50.5t3.5 -57.5q-5 -28 -19 -48t-40 -31q-2 -1 -4.5 -2t-4.5 -1q-22 -4 -29.5 -17.5t-8.5 -31.5q-2 -11 -4.5 -18t-13.5 -7q-21 0 -23 28q0 4 0.5 7.5t0.5 6.5q0 16 -15 16q-10 0 -19.5 1.5t-20.5 3.5q-29 8 -46 24.5t-25 42.5q-27 75 0 150
q3 8 7.5 15t9.5 7q12 2 25.5 1t26.5 -6q8 -3 7 -12.5t-4 -18.5q-5 -28 -3.5 -55t6.5 -55q2 -10 5.5 -19t8.5 -17q7 -12 17 -14t21 7q16 16 21.5 33t3.5 39q-1 23 -8.5 46t-21.5 42q-13 17 -27 30.5t-26 28.5q-13 16 -24.5 32.5t-19.5 33.5q-10 21 -4 40t22 33q14 11 29.5 20
t31.5 15q20 8 19 27q0 7 1 12q2 15 7 18.5t19 1.5q17 -3 20 -6.5t1 -19.5q-3 -12 -3.5 -18.5t2 -10.5t8.5 -6.5t17 -6.5q11 -6 23.5 -9t23.5 -7q18 -10 23.5 -26t-2.5 -31q-1 -1 -6 -4q-3 1 -5 6l-4 16.5t-16 8.5v1v-1l1 -2q8 -17 8 -29t-8 -16q-11 -6 -30.5 -1t-27.5 16
q-2 2 -3 5t-3 5q-4 7 -7.5 5.5t-5.5 -6.5q-22 -28 -1 -61q6 -9 14 -17.5l16 -17.5l29 -34zM129 431q4 -11 12 -21q-1 6 -1.5 11.5t-2.5 12.5q-2 9 -3 21l-4 -12.5t-1 -11.5zM142 408h-1l1 -1v1zM227 309q-1 0 -1 -0.5t-1 -0.5h-1q1 -1 1 -2.5t1 -2.5q0 4 1 6zM261 209
q1 2 2.5 4.5t1.5 5.5q-5 18 -11 35t-11 35q-1 4 -5 10t-12 3q5 -11 10.5 -21t8.5 -20q7 -21 13 -45q0 -2 1 -3.5t2 -3.5z" />
    <glyph glyph-name="sterling" unicode="&#xa3;" horiz-adv-x="413" 
d="M394 98q17 -12 -2 -15q-9 -3 -18.5 -4l-19.5 -2q-54 -3 -105.5 -5.5t-105.5 -4.5q-19 -3 -37.5 -4.5t-37.5 -3.5q-7 0 -13.5 1.5t-11.5 2.5q5 3 10.5 5.5t10.5 3.5q11 3 22.5 5t22.5 5l9 3h-9q-15 -2 -31 -3.5t-33 -3.5q-7 0 -14.5 0.5t-14.5 3.5q-9 3 -12.5 11t-4.5 16
q-1 10 6.5 13t15.5 5q9 4 19 5.5t21 2.5q16 5 17 19l8 61t7 61q0 5 -2 9.5t-4 9.5q-2 2 -5 4.5t-2 3.5q6 9 5 15.5t-5.5 11.5t-10.5 8.5t-10 7.5q-9 8 -8 13t8 8q12 9 29 12q16 3 17 17q3 26 6.5 51.5t9.5 51.5q5 22 13.5 41t24.5 38q22 24 57 16q6 -1 13 -2.5t13 0.5
q24 5 41.5 -4t37.5 -17q3 -4 6 -7.5t5 -8.5q13 -23 -14 -23q-10 0 -20 1t-18 6q-11 5 -15 2.5t-7 -9.5q-4 -5 -6 -9.5t-4 -9.5q-4 -32 -8.5 -62t-8.5 -62q-3 -14 16 -16q17 -2 33.5 -3t33.5 -3q23 -3 32.5 -10.5t14.5 -27.5q1 -5 4 -9.5t6 -9.5q2 -3 3.5 -7t4.5 -8
q-5 -1 -9.5 -2t-9.5 -1h-54t-55 1h-14t-8 -2.5t-4 -8t-3 -14.5l-10.5 -48.5t-10.5 -49.5q-2 -11 -0.5 -13t14.5 -2q33 0 65 0.5t64 0.5q24 0 37.5 -13.5t10.5 -35.5q0 -3 2 -9q-11 8 -24.5 5.5t-25.5 -1.5q-3 0 -6 -3q2 -1 8 -1h48zM144 280l3 -1q-4 0 -4 -1h1q1 0 1 1z
M189 561q-12 -6 -16.5 -14t-6.5 -18q-6 -32 -10 -62.5t-9 -62.5q0 -4 -1 -7.5t1 -8.5q0 -2 3 -5q2 1 5 4q1 5 1 11v11l11.5 58t10.5 60q2 8 5 16.5t5 17.5h1zM241 92q27 0 46 4q0 1 1.5 1.5t2.5 2.5q-1 0 -1 0.5t-1 0.5h-2l-21.5 -2l-21.5 -2q-9 -2 -18 -3l-18 -2h33z
M199 92q-5 2 -7.5 4t-4.5 2q-2 -3 -6 -4.5t-8 -3.5q4 -1 6.5 -1.5t4.5 -0.5q4 0 15 4z" />
    <glyph glyph-name="yen" unicode="&#xa5;" horiz-adv-x="374" 
d="M67 531q4 2 8.5 6t6.5 3q10 -4 20 -9t17 -12q17 -16 31.5 -33t30.5 -34q10 -11 14 -11t11 14q13 25 28 48.5t36 43.5q5 5 13 11t16 5q11 -1 22 -7.5l21 -12.5q7 -3 5 -8.5t-5 -10.5q-10 -14 -18.5 -28.5l-16.5 -28.5q0 -1 1 -2q2 -2 4 -2h-2q-2 -5 -5 -8.5t-5 -7.5v2v-2
q-1 -17 -6.5 -29t-20.5 -22q-2 -2 -2.5 -4.5t-2.5 -4.5q-1 0 -2 1h-2q2 0 3 -1q0 -6 0.5 -12t-1.5 -12q-5 -13 -4 -16t14 -5l23 -6.5l23 -6.5q14 -3 26 -19t10 -31q0 -3 -3 -7t-6 -5q-10 -2 -17.5 -3t-15.5 0l-34.5 2t-35.5 5q-23 3 -31 -20q-3 -11 -7.5 -22t-2.5 -20
q1 -6 5 -8.5t9.5 -3t11.5 0t11 -0.5q14 -3 29.5 -6l31.5 -6h6t5 -2q3 -5 6 -11t5 -11q-5 -2 -9 -4t-9 -2q-25 5 -49 7.5t-47 6.5q-18 1 -22.5 -1.5t-8.5 -18.5q-7 -21 -13 -42.5t-8 -43.5q-2 -13 -7.5 -17t-16.5 -3q-7 2 -16 3t-16 5q-5 2 -6.5 10t-0.5 13q0 20 2 41.5
l4 41.5q1 10 -0.5 18t-14.5 7q-9 0 -15 6q-7 6 -5 13q0 2 3 4.5t6 4.5q3 1 8 1q9 1 18.5 -1t15.5 9q6 13 9.5 27.5t6.5 28.5q1 1 -0.5 3t-2.5 4q-3 1 -10 1q-14 -2 -23.5 2.5t-17 12t-13.5 17l-12 18.5q-8 14 -2 24t23 10t35 -1t36 -3q7 -1 13.5 -0.5t9.5 10.5
q4 10 3.5 18.5t-11.5 15.5q-6 6 -15 10q0 1 -2 -3.5t-3 -6.5v-1q-2 3 -6 4.5t-6 3.5q2 2 4 3q-1 1 -2 1t-1 -4q-38 29 -70.5 63t-58.5 75q-2 4 -3 9t-4 10q5 0 12 1t10 -1q7 -5 13 -11.5t14 -12.5l11 -8.5t12 -7.5q1 -2 3.5 -4.5l4.5 -4.5v-4t-2 -4q2 0 2.5 0.5t1.5 0.5
q-3 5 -4 6q-2 3 -3.5 5.5t-2.5 4.5zM310 463h3h-1h-2zM142 407q0 -1 1 -1h-1v1zM162 391l-1 3h2z" />
    <glyph glyph-name="Euro" unicode="&#x20ac;" horiz-adv-x="502" 
d="M323 370q5 -2 10.5 -5t12.5 -6q-8 -2 -15 -4t-15 -2h-54q-5 0 -10.5 -4t-9.5 -9t-6 -11t1 -10t13 -6q11 -2 22 -2.5t23 -1.5q5 -2 10 -3.5t8 -3.5q13 -11 -4 -18q-6 -3 -11.5 -3.5t-12.5 -1.5l-12.5 4t-14.5 4h-5.5t-6.5 -2q-2 0 -2.5 -0.5t-3.5 -0.5q3 -1 4 -2.5t3 0.5
q8 2 11 5q6 -8 13 -8.5t14 1.5q9 -1 16 -2.5t15 -3.5q5 -2 10 -2.5t8 -4.5q2 -2 4.5 -6t6.5 -8q-11 -4 -18 -4l-42 2l-41 2q-17 2 -20 -1t-4 -15q-2 -28 -0.5 -55t10.5 -53q5 -17 8.5 -18.5t18.5 9.5q4 2 7 4.5t8 5.5h-1q-5 -6 -8.5 -12.5l-7.5 -13.5q-2 -2 -2.5 -3.5
t-1.5 -3.5q3 1 6 0.5t5 0.5l24.5 19t22.5 21l60 63.5t53 69.5q8 13 19 19.5t28 4.5q20 -1 12 -17q-8 -12 -14.5 -24t-14.5 -22l-109 -127q-21 -23 -47.5 -36.5t-59.5 -15.5q-28 -3 -58 0q-9 1 -18.5 5.5t-17.5 10.5q-39 30 -48 75q-6 24 -8.5 47.5t1.5 49.5q1 14 -2 16.5
t-22 2.5q-5 0 -11 -0.5t-11 1.5q-8 2 -14.5 6t-3.5 12q2 8 -2 10t-10 3q-13 0 -13 13q4 16 18 16q16 1 32 1h32q8 1 14 1t11 2q5 3 8.5 9t4.5 11q1 8 -5 9t-11 1h-11.5t-11.5 1q-2 1 -4.5 4t-1.5 3q8 8 -5 8q-12 0 -21 7q-8 8 -8 20q0 9 6 10.5t13 1.5q16 1 30 1t29 3
q9 0 17 2.5t16 5.5l-1 1q2 -1 5.5 -2t3.5 0q7 9 12.5 17.5t12.5 16.5q2 -4 3.5 -8t1.5 -8q-1 -4 -4 -6.5t-5 -7.5q-2 -7 0 -11q2 -1 5.5 -2t5.5 1q4 1 8 3.5l7 4.5q11 17 21.5 35.5t21.5 35.5q2 2 2.5 3.5t2.5 2.5h2q-3 -2 -6 -8q-2 4 -3.5 6.5t-1.5 5.5l-3 2q11 10 24 18
t19 22l-2 -1q6 5 13 7v-1l27 6t28 5q27 2 50 -6.5t45 -21.5q16 -9 20 -23l8 -28q0 -7 -3 -7q-15 -5 -29 -5q-7 0 -11 8l-8 12t-9 11q-14 17 -32.5 19t-35.5 -11q-26 -18 -42.5 -40t-30.5 -48q-6 -10 8 -12q6 -1 12.5 -1h11.5q18 1 28 -14q8 -8 6 -13t-15 -11q-10 2 -19.5 2
h-18.5h-23h23q9 -7 18.5 -5zM45 292h-4v-2l2 1q1 0 2 1h5q5 -6 12.5 -5t13.5 2l3 3h-23h-6h-5zM120 172q5 -14 7 -27t7 -24q2 -8 7 -15t10 -15q1 -2 3.5 -2t4.5 -2q0 2 1 4t-1 6q-14 33 -16.5 68.5t1.5 71.5q0 5 1 9t-1 7q0 5 -7 5q-7 2 -10 -3q-4 -8 -4 -12
q-2 -19 -2.5 -36.5t-0.5 -34.5zM153 318q4 4 7 6t5 5q2 8 2 13t1 11q-5 0 -10.5 1t-7.5 -1q-5 -6 -7 -11t-2 -13q0 -3 4.5 -5.5t7.5 -5.5zM358 543q2 0 2.5 0.5t2.5 0.5l-4 2q-1 0 -1 -0.5t-1 -0.5q1 -1 1 -2zM99 371v2q0 -1 -2 -1v-1h2zM141 288h3h-2h-2h1zM163 452
q2 3 3.5 7.5t3.5 9.5q12 18 27 34.5t37 29.5q4 2 10 4t11 4h-1l-33.5 -31t-31.5 -31q-6 -7 -13 -13.5l-14 -13.5h1zM255 541q8 2 13.5 4t13.5 4v-6l2 1q-9 -1 -15.5 -1.5t-14.5 -1.5h1zM154 434q4 7 8 18h1q-3 -9 -8 -18h-1zM282 549h7t6 1v-1h-13zM149 423q1 2 2 5.5t3 5.5
h1q-2 -2 -2.5 -6t-2.5 -6zM281 145v-3q0 2 2 2q-2 0 -2 1q-1 -3 -4 -6v-1q1 1 1.5 3t2.5 4zM271 130q1 2 2.5 4t3.5 5v-1q-1 -2 -3 -4t-2 -4h-1zM201 459q-5 -2 -9 -2.5t-9 -1.5q5 1 9 1.5t9 2.5q5 4 13 7l-1 -1zM244 502q-2 2 -4 2h1zM214 466q-1 0 -1 -0.5t-1 -0.5
q0 1 1 2v-2z" />
    <glyph glyph-name="percent" unicode="%" horiz-adv-x="438" 
d="M401 574l-46.5 -91.5l-46.5 -93.5l-68.5 -144.5t-64.5 -146.5q-11 -22 -18 -47t-15 -49q-2 -4 -3.5 -6.5t-2.5 -6.5q-3 3 -5.5 5t-4.5 5q-2 8 -2 12q-6 -4 -7 -9q-10 -22 -36 -19q-25 6 -28 27q-2 23 5 40q29 115 69.5 223.5t99.5 211.5q10 16 19 32t17 32q3 2 3.5 5.5
t2.5 5.5q-4 1 -6.5 1.5t-5.5 -0.5q-6 -1 -10.5 -2.5t-9.5 -1.5q-13 -4 -25 -5t-20 -6q-7 -5 -6 -17.5t-3 -22.5q-10 -38 -45 -65q-11 -8 -23.5 -11.5t-26.5 0.5q-8 2 -18 3t-20 4q-65 23 -51 87q5 18 11 36.5l12 35.5q7 19 14 22.5t26 0.5q17 -3 33 -9.5t23 -26.5q8 4 13 5
l76 12t76 13q7 2 13 4.5t12 5.5q16 7 26 5.5t21 -15.5q3 -4 7 -7.5t10 1.5q10 7 17 2t13 -10q7 -6 4 -12.5t-5 -12.5zM89 498q22 23 25 54q1 8 1 15.5t2 14.5q-3 -1 -7 -1t-5 -2q-13 -17 -17.5 -37.5t-7.5 -41.5v-3q0 -1 1 -1q6 2 8 2zM126 28l3.5 9t2.5 9t1 16
q-1 -5 -2.5 -8t-2.5 -8q-2 -5 -2 -9v-9zM148 98q0 3 -1 5v-5h1zM350 182q40 -2 54.5 -28.5t-7.5 -61.5q-13 -19 -31 -34.5t-51 -13.5q-37 -2 -59 45q-10 21 -7.5 40t14.5 38q4 5 10.5 9.5t12.5 5.5q31 3 64 0zM339 106q6 10 9 19t-5 19q0 2 -2.5 2.5t-3.5 -0.5
q-11 -18 -17 -32q2 -11 6 -16q4 2 7.5 4t5.5 4z" />
    <glyph glyph-name="hyphen" unicode="-" horiz-adv-x="240" 
d="M152 259q-25 0 -52 -0.5t-53 1.5q-16 2 -31 12q-3 1 -2 7t4 12t7.5 11.5t8.5 6.5q11 2 21.5 3.5t21.5 3.5l15.5 4t17.5 3q20 2 39 3.5t39 2.5q2 0 6 -3.5t6 -7.5q3 -5 4 -11t3 -12q4 -25 -3 -32t-30 -5h-22v1v0z" />
    <glyph glyph-name="plus" unicode="+" horiz-adv-x="268" 
d="M129 359q16 1 22.5 -5.5t5.5 -24.5q-1 -12 4.5 -16t16.5 -4h31q8 0 16.5 -6.5t14 -15.5t8 -19t-1.5 -18q-2 -4 -7.5 -6t-10.5 -2q-14 -1 -29 -1.5t-29 0.5q-12 0 -18 -4t-7 -17q-1 -10 -8 -13t-15 -2q-7 2 -13.5 4.5t-6.5 13.5q0 14 -7.5 16.5t-18.5 2.5h-20
q-29 -3 -41 25q-9 27 -4.5 34t31.5 8q11 0 22 0.5t22 0.5q22 -1 22 20q0 11 3 20.5t18 8.5z" />
    <glyph glyph-name="multiply" unicode="&#xd7;" horiz-adv-x="172" 
d="M53 342q5 -2 12.5 -6.5t14.5 -11.5q8 -8 14 -9t14 6q8 5 17 7.5t17 5.5q3 1 5.5 -1.5t4.5 -3.5q2 -3 -3 -8q-7 -5 -13.5 -10.5t-14.5 -10.5q-12 -8 -3 -21q14 -15 20 -28q6 -5 4 -10t-7 -9q-16 -11 -28.5 -11t-27.5 14q-8 8 -15 9.5t-15 -8.5q-3 -2 -6 -4.5t-5 -2.5
q-7 0 -12.5 1t-12.5 2q3 4 4.5 8.5t4.5 7.5q5 7 12 13t7 11q0 8 -6.5 15t-10.5 15q-5 6 -8.5 13.5l-6.5 13.5q9 3 17.5 7t16.5 6h10v0z" />
    <glyph glyph-name="parenleft" unicode="(" horiz-adv-x="171" 
d="M13 279q6 100 22 191.5t54 179.5q12 27 26.5 51.5t36.5 44.5q18 17 43.5 17t44.5 -15q5 -5 6 -9t-5 -9q-28 -15 -43 -39t-27 -50l-21.5 -57t-19.5 -57q-14 -46 -23 -91.5t-13 -93.5q-5 -60 -8 -119t5 -118q2 -13 4.5 -26t6.5 -25q12 -44 49 -68q5 -2 7 -6t5 -9
q-5 -2 -9 -4.5t-9 -2.5q-61 -3 -93 49q-14 22 -19.5 46.5t-7.5 50.5q-5 44 -7.5 87.5z" />
    <glyph glyph-name="quotesingle" unicode="'" horiz-adv-x="152" 
d="M71 704q4 14 11.5 19t18.5 4q24 -2 23 -22q-1 -10 -1.5 -18.5t-1.5 -17.5q-1 -10 -2 -18.5t-1 -18.5q-2 -16 -6 -19.5t-18 -5.5q-11 -1 -20 5t-11 17q-1 6 -0.5 12t0.5 12l0.5 5.5t1.5 14t2.5 17t3.5 14.5z" />
    <glyph glyph-name="ampersand" unicode="&#x26;" horiz-adv-x="652" 
d="M147 15q-3 0 -10 0.5t-15 1.5q-34 4 -58 20.5t-38.5 40t-20.5 49.5t-3 50q13 115 85 193q24 24 30.5 51t0.5 66q-12 69 8.5 121t68.5 87q32 23 68.5 25t76.5 -24q7 -5 13 -7t14 -5q28 -14 39 -32.5t11 -50.5q0 -29 -8 -54t-22 -47q-12 -19 -29.5 -39.5l-36 -41l-36 -40.5
t-29.5 -39q-11 -12 1.5 -26l41.5 -46l21 -22.5t12 -7.5t10 5.5t16 15.5q35 30 68 61.5l67 62.5q9 7 20 11t20 9q4 -8 4 -10q3 -14 3 -27q5 4 10.5 7.5t11.5 8.5q2 2 2 4t2 4q10 14 19 14.5t24 -12.5t16 -19.5t-4 -23.5l-42.5 -114l-41.5 -114l-4 -16.5t10 -18.5q1 -1 0.5 -6
t-1.5 -5q-11 -2 -17 -10t-11 -18q-5 -8 -17 -5t-20 17l-9 16.5t-15 -2.5q-1 0 -4 1.5t-4 3.5q-11 23 -28.5 29.5t-33.5 17.5q-5 3 -11.5 0l-12.5 -6q-16 -14 -31.5 -30t-32.5 -30q-25 -22 -53 -38q-12 -7 -21.5 -10.5t-20 -4t-23 1.5t-30.5 7zM185 555q-11 -10 -9 -25.5
t-1 -29.5l2 -2l2 -2q3 0 3 5q1 14 1.5 28t1.5 28l5.5 13t5.5 14q0 1 -1 1q-2 0 -2 1q-2 -8 -3.5 -15.5t-4.5 -15.5zM208 291q-7 -2 -8 -5q-14 -11 -26 -33.5t-19 -49.5t-6.5 -55.5t10.5 -50.5q3 0 6.5 -1t5.5 1l38.5 28t38.5 31q20 19 26.5 32t1.5 26.5t-20.5 29.5l-38.5 41
q-3 3 -9 6zM303 651q-3 1 -5.5 2.5t-4.5 -0.5q-13 -3 -28 -16.5t-27.5 -32t-20.5 -38.5t-8 -36v-4q0 -1 1 -2q6 -2 8 0l45 51.5t35 60.5q2 3 2.5 6.5t2.5 8.5zM471 142q1 -5 1.5 -8t1.5 -8q2 4 5.5 6t4.5 5q4 14 7.5 28t8.5 28q5 20 10.5 38.5t12.5 38.5q0 2 -0.5 5t-0.5 5
q-3 -1 -5.5 -1t-4.5 -2l-8.5 -11t-6.5 -13q-8 -28 -13.5 -56t-12.5 -55zM445 141q2 2 4.5 5t3.5 6q9 31 15 65q1 2 0 5t-1 6q-2 -1 -3.5 -1t-2.5 -1q-11 -13 -22.5 -25l-22.5 -24q-8 -10 3 -18l12 -8t14 -10zM365 627q1 -2 2 -4.5t3 -6.5q1 3 2 5t1 4q1 5 0.5 9t-0.5 9l-4 4
q-2 2 -4 -3v-9v-8zM106 112q-1 2 -3 8q-1 -2 -2 -3.5t-1 -3.5t1 -4l2 -4q1 2 1 3.5t2 3.5z" />
    <glyph glyph-name="comma" unicode="," horiz-adv-x="136" 
d="M35 52q4 14 11.5 19t18.5 4q24 -2 23 -22q-1 -10 -1.5 -18.5t-1.5 -17.5q-1 -10 -2 -18.5t-1 -18.5q-2 -16 -6 -19.5t-18 -5.5q-11 -1 -20 5t-11 17q-1 6 -0.5 12t0.5 12l0.5 5.5t1.5 14t2.5 17t3.5 14.5z" />
    <glyph glyph-name="period" unicode="." horiz-adv-x="153" 
d="M72 96q41 0 43 -29q1 -11 -4.5 -19t-16.5 -11q-15 -3 -30 -3q-31 1 -31 34q0 14 5 19t22 7q10 2 12 2z" />
    <glyph glyph-name="slash" unicode="/" horiz-adv-x="238" 
d="M17 -42q-16 1 -20.5 6t-1.5 22q30 149 78 296l31 102.5t34 102.5l55.5 134.5l56.5 134.5q8 21 29 24q4 0 11.5 -3t14.5 -8.5t12.5 -11t5.5 -9.5q1 -6 -1 -13t-4 -13l-35.5 -88.5l-34.5 -88.5q-54 -137 -103.5 -275.5t-88.5 -281.5q-5 -19 -12.5 -24.5t-26.5 -5.5z" />
    <glyph glyph-name="exclam" unicode="!" horiz-adv-x="235" 
d="M43 235q10 43 18.5 85t18.5 86q27 121 75 239q2 6 5 13t6 13q1 3 3.5 5.5l4.5 4.5q1 1 5 1q6 -7 11.5 -7t11.5 2l12 4t12 -1q31 -14 40 -30t-1 -48l-35.5 -115.5l-37.5 -114.5q-14 -45 -30.5 -88.5t-22.5 -90.5q-1 -9 -4.5 -15t-14.5 -6q-10 1 -19 3t-15 14
q-8 16 -6.5 32.5t3.5 32.5q1 6 0.5 12.5t0.5 12.5l-4 -10.5t-4 -12.5q-2 -11 -3.5 -21.5t-5.5 -22.5q-1 -3 -4 -6.5t-6 -6.5q-2 3 -5 6t-4 7q-2 5 -1.5 11t-0.5 11q-1 1 -3 1zM139 471q0 1 -1 2q1 0 1 -0.5t1 -0.5l-4 -2q1 -1 1.5 -2t1.5 -2v5zM88 317q7 4 11 10q3 8 5 16.5
l4 16.5v7q0 2 -0.5 2.5t-0.5 2.5v-6q0 -5 1 -7l-9.5 -21l-9.5 -21q0 -6 -1 -9q0 -1 0.5 -2.5t0.5 -3.5q0 2 1.5 3.5t1.5 3.5t-1.5 4t-2.5 4zM127 446q0 -1 -0.5 -1t-0.5 -1v-3l2 2q1 1 -1 3zM120 423l1 -2l1 2h-2zM92 7q-2 0 -4 -1.5t-5 -1.5h-21.5t-21.5 2q-7 2 -13 8.5
t-8 11.5q-4 30 -1 67q1 10 11.5 14.5t19.5 -0.5l33 -12t32 -13q15 -6 19.5 -14.5t-0.5 -25.5q-2 -5 -5 -11.5t-5 -11.5q-5 -9 -11.5 -14t-19.5 2z" />
    <glyph glyph-name="grave" unicode="`" horiz-adv-x="170" 
d="M108 657q-4 2 -9.5 3.5t-9.5 6.5l-33.5 38.5l-33.5 38.5q-7 8 -6 12t12 7q12 4 21 5.5t16 0t13.5 -7.5t14.5 -16l22 -25.5l22 -24.5q12 -14 10 -22t-21 -13q-6 -2 -18 -3z" />
    <glyph glyph-name="circumflex" unicode="&#x2c6;" horiz-adv-x="217" 
d="M141 648q-3 2 -8 4t-10 7q-4 3 -7 7t-6 9q-13 17 -17.5 18t-16.5 -15q-8 -11 -19.5 -13.5l-21.5 -4.5q-4 -1 -8.5 2t-6.5 6q-1 2 0 7t3 7l27.5 31.5t28.5 29.5q18 18 44 13t38 -29q7 -11 11.5 -23t9.5 -24q11 -18 -11 -25q-7 -2 -13.5 -3.5t-16.5 -3.5z" />
    <glyph glyph-name="dieresis" unicode="&#xa8;" horiz-adv-x="249" 
d="M69 732q41 0 43 -29q1 -11 -4.5 -19t-16.5 -11q-15 -3 -30 -3q-31 1 -31 34q0 14 5 19t22 7q10 2 12 2zM175 732q41 0 43 -29q1 -11 -4.5 -19t-16.5 -11q-15 -3 -30 -3q-31 1 -31 34q0 14 5 19t22 7q10 2 12 2z" />
    <glyph glyph-name="ring" unicode="&#x2da;" horiz-adv-x="161" 
d="M78 638q-25 0 -40.5 13.5t-17.5 34.5q-2 18 5 34t19 29q4 5 9.5 7.5t8.5 1.5q16 -7 30.5 -12.5t25.5 -19.5t9 -28t-9 -28q-13 -30 -40 -32zM73 688q1 -4 1 -10t2 -13q1 -2 5 -3.5t6 -0.5q5 3 8.5 10.5t4.5 16.5t-0.5 17.5t-6.5 13.5q-2 2 -5.5 4t-4.5 1q-6 -3 -8 -11
q-2 -5 -1.5 -11t-0.5 -14z" />
    <glyph glyph-name="tilde" unicode="&#x2dc;" horiz-adv-x="303" 
d="M159 681q-37 0 -58 22q-8 6 -14.5 7.5t-11.5 -7.5q-7 -12 -17.5 -14t-21.5 -5q-2 -1 -6 0.5t-6 3.5t-1.5 6.5t2.5 7.5q7 15 21.5 25t32 13.5t34.5 0t30 -15.5q10 -9 16 -13.5t12 -5t12.5 3.5t18.5 12l12.5 8.5l13.5 9.5q4 2 8.5 5t9.5 4q8 2 14.5 0.5t14.5 -1.5
q-4 -6 -7 -12.5t-8 -11.5q-22 -20 -46.5 -32t-54.5 -11z" />
    <glyph glyph-name="asciicircum" unicode="^" horiz-adv-x="272" 
d="M157 819q4 0 7.5 -0.5t7.5 -0.5q5 -2 7 -4t1 -9q-1 -8 -0.5 -17.5t2.5 -18.5l28 -83l28 -83q2 -5 5.5 -11t-5.5 -8q-3 -1 -7.5 -3t-8.5 -3t-8.5 0.5t-7.5 7.5q-4 8 -8.5 13.5t-7.5 12.5l-22 53l-22 52q-2 4 -4 6.5t-4 5.5q-3 -2 -5.5 -4t-4.5 -5q-13 -20 -25.5 -41.5
t-25.5 -41.5q-5 -10 -20.5 -17t-25.5 -3q-15 7 -10 20q0 2 1 3l46 81l46 82q7 13 19 13.5t24 2.5z" />
    <glyph glyph-name="asciitilde" unicode="~" horiz-adv-x="487" 
d="M274 256q-39 2 -68 20t-50 48q-9 12 -14 18t-9.5 6t-9.5 -6t-14 -18l-15 -21.5l-14 -21.5q-4 -5 -7 -10.5t-7 -7.5q-19 -4 -38 -3q-9 1 -12.5 8t0.5 16q14 29 33 55t48 44q13 8 28 9.5t29.5 -2t27.5 -12.5t22 -22l17.5 -27.5t19.5 -24.5q19 -19 36.5 -19.5t40.5 14.5
q42 31 72 76q2 4 4 9t5 6q9 3 17.5 5t16.5 -1q10 -3 5.5 -10l-7.5 -12q-16 -30 -37.5 -55t-50.5 -41q-16 -8 -34 -11.5t-35 -8.5z" />
    <glyph glyph-name="braceleft" unicode="{" horiz-adv-x="274" 
d="M65 431q18 21 23.5 45t5.5 51q1 54 6 107l10 107q1 23 16 44q17 31 56 25q24 -5 46.5 -14t40.5 -29q6 -7 4 -9t-7 -4q-8 -2 -14.5 -4t-14.5 -2q-17 0 -23 -3.5t-9 -18.5q-2 -12 -3 -24.5t-3 -25.5q-4 -33 -7.5 -66.5t-8.5 -65.5l-6 -33t-5 -34q-2 -16 -7.5 -28.5
t-18.5 -23.5q-11 -9 -20.5 -19t-20.5 -19q-10 -10 4 -16q8 -4 14.5 -9.5t14.5 -7.5q20 -8 31 -24.5t25 -30.5q6 -5 7 -15.5t1 -20.5v-56t-1 -57q-2 -29 -2.5 -58.5t-1.5 -58.5v-11.5t1 -12.5q2 -21 25 -24q7 -1 15.5 -2.5t9.5 -12.5q0 -2 -9.5 -5t-15.5 -3q-14 -1 -29 -0.5
t-29 2.5q-50 6 -57 53q-1 3 -1 6.5t-1 7.5t-6 9q-1 -3 -1 -9v-10q0 -1 -2 -7q-2 2 -3.5 4t-3.5 4q-2 4 -2.5 8t-1.5 9q-6 32 -4 65t7 66q0 4 1.5 8t9.5 -1q1 4 3 8t2 8q2 28 3 55.5t1 53.5q0 8 6 14.5t-2 14.5q-5 5 -12.5 7t-13.5 7l-27.5 15t-26.5 15q-15 10 -14 16t17 14
q8 4 15 9l15 11l-1 -1v7zM107 78q-4 4 -6 7q-4 -6 -4 -8q-1 -2 0.5 -4.5t2.5 -4.5q2 2 3.5 4.5t3.5 5.5zM99 130q1 -2 2.5 -3.5t2.5 -3.5q0 2 0.5 3t0.5 3v8.5t-1 8.5q0 3 -3 6q-2 -4 -2 -6v-4v-12zM153 335v8h-1v-8h1z" />
    <glyph glyph-name="bar" unicode="|" horiz-adv-x="147" 
d="M19 244q3 104 11.5 205.5t22.5 203.5q2 18 3.5 35.5t4.5 34.5q4 20 10 24t25 -4q21 -7 28 -16.5t5 -32.5q-5 -93 -11.5 -184t-11.5 -184l-10 -151l-10 -152q-1 -17 -6.5 -22t-25.5 -7q-16 -2 -23 3.5t-10 22.5q-2 12 -2 24.5v23.5q-1 45 -0.5 88t0.5 88z" />
    <glyph glyph-name="bracketleft" unicode="[" horiz-adv-x="258" 
d="M160 795q26 -2 50.5 -3t50.5 -4q12 -1 19 -2.5t11.5 -5t7.5 -10t7 -16.5q2 -6 3 -10t2 -9q2 -14 -0.5 -17t-16.5 -2q-27 0 -54 1l-54 2q-19 0 -22.5 -3t-2.5 -21q1 -86 -10.5 -168.5t-20.5 -166.5l-10 -134t-11 -134v-19q0 -12 1 -19t4.5 -10t10.5 -4t20 -2q11 -1 22 -1
t21 -2q23 -3 38 -22.5t11 -39.5q-2 -8 -13 -10q-6 -2 -13 -1.5t-13 0.5h-127q-13 0 -24.5 6.5t-19.5 17t-11.5 23t0.5 25.5q2 5 3.5 9.5t1.5 9.5q-6 61 -3 119.5t8 117.5q8 89 18 176l21 175q2 14 5 27t8 25q4 10 3.5 19t-9.5 20q-10 13 -14 29q-8 18 -4.5 25t23.5 8t41 0.5
t42 -0.5v1v0z" />
    <glyph glyph-name="less" unicode="&#x3c;" horiz-adv-x="290" 
d="M229 151q-6 2 -12.5 3.5t-12.5 5.5q-36 23 -75 40.5l-80 34.5q-30 12 -32.5 25t19.5 36l83 85l82 85q12 11 23 8.5t22 -4.5q12 -2 16.5 -11t7.5 -17q2 -4 0 -8t-4 -6l-29 -38.5t-32 -38.5q-21 -25 -43.5 -49l-45.5 -49q-6 -8 -3 -11t10 -6q25 -12 49 -25l49 -26l9 -5.5
t9 -6.5q3 -4 4.5 -8.5t3.5 -9.5q-4 -1 -8 -1.5t-10 -2.5z" />
    <glyph glyph-name="question" unicode="?" horiz-adv-x="452" 
d="M88 460q-2 28 6 53.5t22 48.5q8 12 16.5 22.5l17.5 21.5q4 5 6.5 11t-1.5 12h21q-1 0 -1 0.5t-1 0.5q1 0 1 -2q-5 0 -10 0.5t-10 0.5l-39 -37t-32 -43l-13.5 -28t-10 -28.5t-2 -29.5t9.5 -31q2 -2 0 -6.5t-4 -6.5q-4 -2 -10 -3t-9 1q-5 4 -8.5 9t-8.5 10q-21 47 -5 99
q22 62 71 105q43 37 92.5 59.5t107.5 19.5q79 -3 137 -61q23 -20 16 -54q-5 -28 -13.5 -55t-23.5 -52l-34 -54.5t-37 -53.5q-25 -39 -52.5 -75.5l-53.5 -74.5l-24.5 -37l-24.5 -37q-2 -2 -4.5 -3t-4.5 -3q0 3 -1 6.5t0 5.5q8 20 17 39.5l18 39.5q1 2 0.5 4t-0.5 4
q-2 -2 -3.5 -2.5t-3.5 -2.5q-5 -3 -10 -5.5t-11 -6.5l39 73.5l39 73.5q15 28 32 54.5t33 54.5q7 12 12.5 24.5t12.5 25.5q1 1 1 1.5t1 1.5q-1 0 -1 -1v-3q-5 -5 -10 -9.5t-9 -9.5l-65 -92t-64 -93l-39.5 -66l-39.5 -68l-1 -2q-4 -8 -8 -15t-16 -1q-12 5 -10.5 13.5t5.5 16.5
q5 16 11.5 32l13.5 33q54 115 130 222l33.5 51l33.5 52q5 9 6 19t4 19q-9 -2 -19 -3.5t-18 -4.5q-51 -18 -92 -48.5t-70 -77.5q-8 -14 -18 -26.5t-20 -26.5v-1zM367 581l6.5 12.5l6.5 12.5l4 8t3 9q2 4 1.5 8.5t-0.5 8.5q-2 -4 -3.5 -8t-2.5 -8q-2 -5 -1 -9.5t1 -9.5
q-5 -6 -8 -12.5l-6 -12.5h-3v-2q1 1 1 1.5t1 1.5zM172 14q4 -5 9 -8.5t-5 -8.5q-35 -20 -66 -9t-42 52q-4 17 4.5 28t25.5 9q16 -1 31.5 -3.5t25.5 -19.5q1 -2 3.5 -3t4.5 -3q17 -4 10 -20q-2 -3 -1.5 -7t0.5 -8h-2v-3q0 2 2 4zM98 431q-3 4 -6 8.5t-7 8.5q10 0 10 -7t3 -11
v1zM442 677q-1 -1 -3 -1v2h1l1 1q1 -1 1 -2zM439 641v2l-1 -1zM181 241q0 -1 0.5 -1.5t0.5 -1.5v-1q0 2 -1 4zM450 730l1 3l1 -3h-2zM98 430q0 -3 2 -7q-2 4 -2 8v-1zM85 448q2 8 3 13v-1z" />
    <glyph glyph-name="greater" unicode="&#x3e;" horiz-adv-x="326" 
d="M137 468q5 -4 11 -7t11 -8q28 -33 60.5 -61l66.5 -55q26 -20 24.5 -33t-29.5 -29l-103.5 -58l-102.5 -59q-14 -8 -24 -2t-20 11q-11 5 -13 15t-2 19q-2 4 1.5 7t6.5 5l39 28.5l41 28.5q27 18 55.5 34.5l57.5 34.5q8 5 5.5 9t-7.5 9l-40 38l-40 39q-3 4 -6.5 7.5t-7.5 8.5
q-2 5 -2 10v10q4 -1 8 -1t10 -1z" />
    <glyph glyph-name="parenright" unicode=")" horiz-adv-x="200" 
d="M177 451q-6 -100 -22 -191.5t-54 -179.5q-12 -27 -26.5 -51.5t-36.5 -44.5q-18 -17 -43.5 -17t-44.5 15q-5 5 -6 9t5 9q28 15 43 39t27 50l21.5 57t19.5 57q14 46 23 91.5t13 93.5q5 60 8 119t-5 118q-2 13 -4.5 26t-6.5 25q-12 44 -49 68q-5 2 -7 6t-5 9q5 2 9 4.5
t9 2.5q61 3 93 -49q14 -22 19.5 -46.5t7.5 -50.5q5 -44 7.5 -87.5z" />
    <glyph glyph-name="bracketright" unicode="]" horiz-adv-x="242" 
d="M74 -39q-26 2 -50.5 3t-50.5 4q-23 1 -30.5 7.5t-14.5 26.5q-2 6 -3 10t-2 9q-2 14 0.5 17t16.5 2q27 0 54 -1l54 -2q19 0 22.5 3t2.5 21q-1 86 10.5 168.5t20.5 166.5l10 134t11 134v19q0 12 -1 19t-4.5 10t-10.5 4t-20 2q-11 1 -22 1t-21 2q-23 3 -38 22.5t-11 39.5
q2 8 13 10q6 2 13 1.5t13 -0.5h127q13 0 24.5 -6.5t19.5 -17t11.5 -23t-0.5 -25.5q-2 -5 -3.5 -9.5t-1.5 -9.5q6 -61 3 -119.5t-8 -117.5q-8 -89 -18 -176l-21 -175q-2 -14 -5 -27t-8 -25q-4 -10 -3.5 -19t9.5 -20q5 -6 8.5 -13t5.5 -16q8 -18 4.5 -25t-23.5 -8t-41 -0.5
t-42 0.5v-1v0z" />
    <glyph glyph-name="braceright" unicode="}" horiz-adv-x="263" 
d="M182 344q-18 -21 -23.5 -45t-5.5 -51q-1 -54 -6 -107l-10 -107q-1 -23 -16 -44q-17 -31 -56 -25q-24 5 -46.5 14t-40.5 29q-6 7 -4 9t7 4q8 2 14.5 4t14.5 2q17 0 23 3.5t9 18.5q2 12 3 24.5t3 25.5q4 33 7.5 66.5t8.5 65.5l6 33t5 34q2 16 7.5 28.5t18.5 23.5
q11 9 20.5 19t20.5 19q6 6 4.5 9.5t-8.5 6.5q-8 4 -14.5 9.5t-14.5 7.5q-20 8 -31 24.5t-25 30.5q-6 5 -7 15.5t-1 20.5v56t1 57q2 29 2.5 58.5t1.5 58.5v11.5t-1 12.5q-2 21 -25 24q-7 1 -15.5 2.5t-9.5 12.5q0 2 9.5 5t15.5 3q14 1 29 0.5t29 -2.5q50 -6 57 -53
q1 -3 1 -6.5t1 -7.5t6 -9q1 3 1 9v10q0 1 2 7q2 -2 3.5 -4t3.5 -4q2 -4 2.5 -8t1.5 -9q6 -32 4 -65t-7 -66q0 -4 -1.5 -8t-9.5 1q-1 -4 -3 -8t-2 -8q-2 -28 -3 -55.5t-1 -53.5q0 -8 -6 -14.5t2 -14.5q5 -5 12.5 -7t13.5 -7l27.5 -15t26.5 -15q15 -10 14 -16t-17 -14
q-8 -4 -15 -9l-15 -11l1 1v-7zM140 697q4 -4 6 -7q4 6 4 8q1 2 -0.5 4.5t-2.5 4.5q-2 -2 -3.5 -4.5t-3.5 -5.5zM148 645q-1 2 -2.5 3.5t-2.5 3.5q0 -2 -0.5 -3t-0.5 -3v-8.5t1 -8.5q0 -3 3 -6q2 4 2 6v4v12zM94 440v-8h1v8h-1z" />
    <glyph glyph-name="backslash" unicode="\" horiz-adv-x="292" 
d="M256 -42q-19 0 -26.5 5.5t-12.5 24.5q-39 143 -88.5 281.5t-103.5 275.5l-34.5 88.5l-35.5 88.5q-2 6 -4 13t-1 13q0 4 5.5 9.5t12.5 11t14.5 8.5t11.5 3q21 -3 29 -24l56.5 -134.5l55.5 -134.5q19 -51 34 -102.5l31 -102.5q48 -147 78 -296q3 -17 -1.5 -22t-20.5 -6z
" />
    <glyph glyph-name="colon" unicode=":" horiz-adv-x="151" 
d="M59 159q41 0 43 -29q1 -11 -4.5 -19t-16.5 -11q-15 -3 -30 -3q-31 1 -31 34q0 14 5 19t22 7q10 2 12 2zM73 387q41 0 43 -29q1 -11 -4.5 -19t-16.5 -11q-15 -3 -30 -3q-31 1 -31 34q0 14 5 19t22 7q10 2 12 2z" />
    <glyph glyph-name="semicolon" unicode=";" horiz-adv-x="151" 
d="M73 387q41 0 43 -29q1 -11 -4.5 -19t-16.5 -11q-15 -3 -30 -3q-31 1 -31 34q0 14 5 19t22 7q10 2 12 2zM38 129q4 14 11.5 19t18.5 4q24 -2 23 -22q-1 -10 -1.5 -18.5t-1.5 -17.5q-1 -10 -2 -18.5t-1 -18.5q-2 -16 -6 -19.5t-18 -5.5q-11 -1 -20 5t-11 17q-1 6 -0.5 12
t0.5 12l0.5 5.5t1.5 14t2.5 17t3.5 14.5z" />
    <glyph glyph-name="divide" unicode="&#xf7;" horiz-adv-x="240" 
d="M152 259q-25 0 -52 -0.5t-53 1.5q-16 2 -31 12q-3 1 -2 7t4 12t7.5 11.5t8.5 6.5q11 2 21.5 3.5t21.5 3.5l15.5 4t17.5 3q20 2 39 3.5t39 2.5q2 0 6 -3.5t6 -7.5q3 -5 4 -11t3 -12q4 -25 -3 -32t-30 -5h-22v1zM107 229q34 0 35 -22q2 -18 -17 -23q-6 -1 -12 -1.5
t-13 -0.5q-25 1 -25 26q0 11 4 14.5t18 5.5q3 0 5.5 0.5t4.5 0.5zM118 403q35 0 35 -22q2 -18 -17 -23q-6 -1 -11.5 -1.5t-12.5 -0.5q-26 2 -26 26q0 11 4 14t18 5z" />
    <glyph glyph-name="exclamdown" unicode="&#xa1;" horiz-adv-x="260" 
d="M208.003 266.015q-10 -42.998 -18.499 -84.9951q-8.5 -41.9971 -18.499 -85.9951q-26.998 -120.992 -74.9951 -238.985q-2 -5.99902 -5 -12.999q-3 -6.99902 -6 -12.999q-1 -3 -3.49902 -5.5l-4.5 -4.49902q-1 -1 -5 -1q-5.99902 6.99902 -11.499 6.99902t-11.499 -2
l-12 -3.99902q-5.99902 -2 -11.999 0.999023q-30.998 14 -39.9971 29.999q-9 15.999 1 47.9971l35.4971 115.492l37.498 114.493q13.999 44.9971 30.498 88.4951q16.499 43.4971 22.499 90.4941q1 9 4.49902 14.999q3.5 6 14.5 6q9.99902 -1 18.998 -3q9 -2 14.999 -13.999
q8 -15.999 6.5 -32.498t-3.5 -32.498q-1 -6 -0.5 -12.499q0.5 -6.5 -0.5 -12.5l4 10.5q2 5.49902 4 12.499q2 10.999 3.5 21.499q1.49902 10.499 5.49902 22.498q1 3 4 6.5t6 6.49902q1.99902 -2.99902 4.99902 -5.99902t4 -7q2 -4.99902 1.5 -10.999t0.5 -10.999q1 -1 3 -1
zM112.009 30.0283q0 -0.999023 1 -1.99902q-1 0 -1 0.5t-1 0.5l3.99902 1.99902q-0.999023 1 -1.49902 2t-1.5 2v-5zM163.006 184.02q-7 -4 -11 -10q-3 -7.99902 -5 -16.499l-3.99902 -16.499v-6.99902q0 -2 0.5 -2.5t0.5 -2.5v6q0 5 -1 6.99902l9.49902 20.999l9.5 20.999
q0 5.99902 1 8.99902q0 1 -0.5 2.5t-0.5 3.5q0 -2 -1.5 -3.5t-1.5 -3.5t1.5 -3.99902q1.5 -2 2.5 -4zM124.008 55.0273q0 1 0.5 1t0.5 1v3l-2 -2q-1 -1 1 -3zM131.008 78.0254l-1 2l-1 -2h2zM159.006 494q2 0 4 1.5q1.99902 1.5 4.99902 1.5h21.499q10.499 0 21.498 -2
q7 -2 13 -8.49902q5.99902 -6.5 7.99902 -11.499q4 -29.998 1 -66.9961q-1 -10 -11.499 -14.499q-10.5 -4.5 -19.499 0.5l-32.998 11.999t-31.998 12.999q-14.999 6 -19.499 14.499q-4.49902 8.5 0.5 25.499q2 4.99902 5 11.499t5 11.499q4.99902 9 11.499 13.999
q6.5 5 19.499 -2z" />
    <glyph glyph-name="questiondown" unicode="&#xbf;" horiz-adv-x="452" 
d="M351.006 19.0283q1.99902 -27.999 -6 -53.4971q-8 -25.498 -21.999 -48.4971q-7.99902 -11.999 -16.499 -22.499l-17.499 -21.498q-3.99902 -5 -6.49902 -10.999q-2.5 -6 1.5 -12h-20.999q1 0 1 -0.5t1 -0.5q-1 0 -1 2q5 0 9.99902 -0.5q5 -0.5 10 -0.5l38.9971 36.998
t31.998 42.9971l13.499 27.999q6.5 13.999 10 28.498t2 29.498t-9.5 30.998q-2 2 0 6.5q2 4.49902 4 6.49902q4 2 9.99902 3q6 1 9 -1q4.99902 -4 8.49902 -8.99902q3.5 -5 8.5 -10q20.998 -46.9971 4.99902 -98.9941q-21.998 -61.9961 -70.9951 -104.993
q-42.9971 -36.998 -92.4941 -59.4961q-49.4971 -22.499 -107.494 -19.499q-78.9951 3 -136.991 60.9961q-22.999 19.999 -15.999 53.9971q5 27.998 13.499 54.9961q8.5 26.999 23.499 51.9971l33.998 54.4971q16.998 27.498 36.9971 53.4961q24.999 38.998 52.4971 75.4961
l53.4971 74.4951l24.498 36.998l24.499 36.9971q1.99902 2 4.49902 3t4.5 3q0 -3 1 -6.5q1 -3.49902 0 -5.49902q-8 -19.999 -16.999 -39.498l-17.999 -39.4971q-1 -2 -0.5 -4t0.5 -4q2 2 3.5 2.5t3.5 2.5q4.99902 3 9.99902 5.49902q5 2.5 10.999 6.5l-38.9971 -73.4951
l-38.998 -73.4961q-14.999 -27.998 -31.998 -54.4961q-16.999 -26.499 -32.998 -54.4971q-6.99902 -11.999 -12.499 -24.498q-5.5 -12.5 -12.499 -25.499q-1 -1 -1 -1.5t-1 -1.5q1 0 1 1v3q5 5 9.99902 9.5q5 4.49902 9 9.49902l64.9961 91.9941t63.9961 92.9941
l39.4971 65.9961l39.498 67.9961l1 2q3.99902 7.99902 7.99902 14.999t15.999 1q11.999 -5 10.499 -13.499q-1.49902 -8.5 -5.49902 -16.499q-5 -15.999 -11.499 -31.998l-13.5 -32.998q-53.9961 -114.993 -129.991 -221.986l-33.498 -50.9971l-33.498 -51.9971
q-5 -8.99902 -6 -18.999q-1 -9.99902 -4 -18.999q9 2 18.999 3.5t17.999 4.5q50.9971 17.999 91.9941 48.4971q40.998 30.498 69.9961 77.4951q7.99902 13.999 17.999 26.498q9.99902 12.5 19.999 26.499v1zM72.0225 -101.965l-6.5 -12.499l-6.49902 -12.499l-4 -8
q-2 -3.99902 -3 -8.99902q-2 -4 -1.5 -8.49902q0.5 -4.5 0.5 -8.5q2 4 3.5 8q1.5 3.99902 2.5 7.99902q2 5 1 9.49902q-1 4.5 -1 9.5q5 5.99902 7.99902 12.499l6 12.499h3v2q-1 -1 -1 -1.5t-1 -1.5zM267.011 465.001q-4 5 -9 8.49902q-4.99902 3.5 5 8.5
q34.998 19.999 65.9961 8.99902q30.998 -10.999 41.9971 -51.9971q4 -16.998 -4.49902 -27.998q-8.5 -10.999 -25.499 -8.99902q-15.999 1 -31.498 3.5q-15.499 2.49902 -25.498 19.498q-1 2 -3.5 3t-4.5 3q-16.999 4 -9.99902 19.999q2 3 1.5 6.99902q-0.5 4 -0.5 8h2v3
q0 -2 -2 -4zM341.006 48.0264q3 -4 6 -8.5q3 -4.49902 6.99902 -8.49902q-9.99902 0 -9.99902 7q0 6.99902 -3 10.999v-1zM-2.97266 -197.959q1 1 2.99902 1v-2h-0.999023l-1 -1q-1 1 -1 2zM0.0263672 -161.961v-2l1 1zM258.011 238.015q0 1 -0.5 1.5t-0.5 1.5v1q0 -2 1 -4z
M-10.9727 -250.955l-1 -3l-1 3h2zM341.006 49.0264q0 3 -2 6.99902q2 -3.99902 2 -7.99902v1zM354.005 31.0273q-2 -8 -2.99902 -12.999v1z" />
    <glyph glyph-name="quotedbl" unicode="&#x22;" horiz-adv-x="239" 
d="M71 704q4 14 11.5 19t18.5 4q24 -2 23 -22q-1 -10 -1.5 -18.5t-1.5 -17.5q-1 -10 -2 -18.5t-1 -18.5q-2 -16 -6 -19.5t-18 -5.5q-11 -1 -20 5t-11 17q-1 6 -0.5 12t0.5 12l0.5 5.5t1.5 14t2.5 17t3.5 14.5zM157 704q4 14 11.5 19t18.5 4q24 -2 23 -22q-1 -10 -1.5 -18.5
t-1.5 -17.5q-1 -10 -2 -18.5t-1 -18.5q-2 -16 -6 -19.5t-18 -5.5q-11 -1 -20 5t-11 17q-1 6 -0.5 12t0.5 12l0.5 5.5t1.5 14t2.5 17t3.5 14.5z" />
    <glyph glyph-name="quotedblright" unicode="&#x201d;" horiz-adv-x="239" 
d="M71 704q4 14 11.5 19t18.5 4q24 -2 23 -22q-1 -10 -1.5 -18.5t-1.5 -17.5q-1 -10 -2 -18.5t-1 -18.5q-2 -16 -6 -19.5t-18 -5.5q-11 -1 -20 5t-11 17q-1 6 -0.5 12t0.5 12l0.5 5.5t1.5 14t2.5 17t3.5 14.5zM157 704q4 14 11.5 19t18.5 4q24 -2 23 -22q-1 -10 -1.5 -18.5
t-1.5 -17.5q-1 -10 -2 -18.5t-1 -18.5q-2 -16 -6 -19.5t-18 -5.5q-11 -1 -20 5t-11 17q-1 6 -0.5 12t0.5 12l0.5 5.5t1.5 14t2.5 17t3.5 14.5z" />
    <glyph glyph-name="quotedblleft" unicode="&#x201c;" horiz-adv-x="239" 
d="M202 704q2 -6 3.5 -14.5t2.5 -17t1.5 -14l0.5 -5.5q0 -6 0.5 -12t-0.5 -12q-2 -11 -11 -17t-20 -5q-14 2 -18 5.5t-6 19.5q0 10 -1 18.5t-2 18.5q-1 9 -1.5 17.5t-1.5 18.5q-1 20 23 22q11 1 18.5 -4t11.5 -19zM116 704q2 -6 3.5 -14.5t2.5 -17t1.5 -14l0.5 -5.5
q0 -6 0.5 -12t-0.5 -12q-2 -11 -11 -17t-20 -5q-14 2 -18 5.5t-6 19.5q0 10 -1 18.5t-2 18.5q-1 9 -1.5 17.5t-1.5 18.5q-1 20 23 22q11 1 18.5 -4t11.5 -19z" />
    <glyph glyph-name="quoteright" unicode="&#x2019;" horiz-adv-x="152" 
d="M71 704q4 14 11.5 19t18.5 4q24 -2 23 -22q-1 -10 -1.5 -18.5t-1.5 -17.5q-1 -10 -2 -18.5t-1 -18.5q-2 -16 -6 -19.5t-18 -5.5q-11 -1 -20 5t-11 17q-1 6 -0.5 12t0.5 12l0.5 5.5t1.5 14t2.5 17t3.5 14.5z" />
    <glyph glyph-name="quoteleft" unicode="&#x2018;" horiz-adv-x="152" 
d="M116 704q2 -6 3.5 -14.5t2.5 -17t1.5 -14l0.5 -5.5q0 -6 0.5 -12t-0.5 -12q-2 -11 -11 -17t-20 -5q-14 2 -18 5.5t-6 19.5q0 10 -1 18.5t-2 18.5q-1 9 -1.5 17.5t-1.5 18.5q-1 20 23 22q11 1 18.5 -4t11.5 -19z" />
    <glyph glyph-name="D" unicode="D" horiz-adv-x="656" 
d="M627 517q47 -99 -11 -182q-23 -35 -53.5 -61t-63.5 -49q-60 -40 -123.5 -71t-130.5 -59q-15 -6 -23 -11t-12 -12t-4 -18.5t2 -30.5q1 -9 5.5 -19.5t-5.5 -21.5t-22.5 -13t-26.5 -1q-41 3 -61 44q-10 18 -14 20t-20 -3q-25 -8 -53 -13q-12 -3 -24 -2t-22.5 6t-17.5 14
t-8 23q-1 4 3 8t7 6l43.5 15.5l43.5 15.5q5 2 10.5 5t10.5 5q-5 -1 -11 -1t-11 -1l-38 -12.5t-39 -11.5q-2 -1 -7 2t-10 5q4 2 6 5t7 5l54.5 23.5l56.5 23.5q11 5 17.5 14t7.5 26q1 46 6.5 94t12 93.5l12.5 88t9 77.5q0 14 4 24.5t7 21.5q1 3 0.5 5.5t-0.5 4.5q-6 0 -9 -1
q-20 -7 -30.5 -2t-21.5 26q-6 10 -8.5 20t-12.5 19q-9 8 -7 20.5t13 20.5t23 14.5t24 11.5q49 19 101 24.5t106 0.5q45 -4 87.5 -15.5t84.5 -34.5q43 -23 73.5 -58t44.5 -87q5 -11 9 -21.5t9 -19.5zM426 681q-1 0 -2 -1h1zM386 693l-4 4t-4 2q-4 -2 -8.5 -3.5t-9.5 -3.5
q5 0 9.5 -0.5t8.5 -0.5t8 2zM311 705q-2 0 -6 -4q2 0 2.5 -1t2.5 -1q13 -2 24.5 -3t22.5 -3q-2 3 -2.5 6.5t-2.5 3.5q-11 2 -20.5 2h-20.5zM123 673q3 2 6.5 5t6.5 5q-5 0 -9.5 -0.5t-3.5 -9.5zM143 684q-1 1 -2 1v-1h-3h5zM159 684q4 2 7.5 4.5l6.5 4.5q-1 0 -2.5 1t-4.5 2
l-6.5 -4.5t-6.5 -5.5q4 -2 6 -2zM221 171l-1 1v-1h1zM257 185q7 2 12.5 2.5t10.5 2.5q-3 -1 -6.5 0t-6.5 1.5t-5.5 -0.5t-4.5 -6zM332 222q3 -3 2 -3q2 0 3.5 1t3.5 2h-9zM354 230q-5 1 -9 1t-2 -8q2 2 4.5 3.5t6.5 3.5zM408 260q5 1 15 5q-7 4 -11 3.5t-4 -8.5zM423 265
q5 7 10.5 12.5l12.5 12.5q-4 -2 -8.5 -3.5t-8 -3.5t-5.5 -6t-1 -12zM451 293q6 1 12 3t1 15q-2 -5 -6.5 -9t-6.5 -9zM383 297q16 4 41 22t50.5 43.5t48 56t34 60t8.5 55.5t-28 42q-50 32 -100.5 46t-97.5 16h-37t-17.5 -4t-7 -15t-6.5 -33l-2 -16l-2 -16l-11 -74.5
l-12 -80.5l-12 -81t-10 -74q-2 -6 -0.5 -11t2.5 -10q4 1 8.5 1.5t9.5 2.5q32 19 70.5 34t70.5 36z" />
    <glyph glyph-name="equal" unicode="=" horiz-adv-x="304" 
d="M196 306h-66t-68 1q-8 1 -18.5 3t-20.5 6q-3 1 -2 5.5t5 9t9.5 9t10.5 5.5q14 2 27.5 2.5t27.5 2.5l20 3.5t21 1.5q26 2 50.5 3l49.5 2q3 0 8 -3t7 -5q4 -5 5.5 -9l3.5 -9q5 -19 -4 -24.5t-38 -3.5h-28zM191 220h-66t-68 1q-8 1 -18.5 3t-20.5 6q-3 1 -2 5.5t5 9t9.5 9
t10.5 5.5q14 2 27.5 2.5t27.5 2.5l20 3.5t21 1.5q26 2 50.5 3l49.5 2q3 0 8 -3t7 -5q4 -5 5.5 -9l3.5 -9q5 -19 -4 -24.5t-38 -3.5h-28z" />
    <glyph glyph-name="underscore" unicode="_" horiz-adv-x="342" 
d="M222 -12q-34 0 -71 -0.5t-72 1.5q-9 1 -20.5 2.5t-21.5 5.5q-4 1 -2.5 5t5.5 8.5t9.5 8t11.5 4.5q16 2 30.5 2.5t28.5 2.5q11 2 21 3t24 2q26 1 52.5 2.5t53.5 1.5q3 0 8.5 -2.5t7.5 -4.5q5 -4 6.5 -8l3.5 -9q5 -17 -4 -22t-41 -4h-30v1v0z" />
    <glyph glyph-name="trademark" unicode="&#x2122;" horiz-adv-x="355" 
d="M320 757q-2 -15 -4.5 -30.5t-4.5 -30.5q-4 -23 -6 -46.5l-4 -47.5q-1 -12 -1.5 -23.5t1.5 -23.5q2 -6 -4 -7q-11 -3 -14 -1t-5 13q-1 4 -1 8t-1 8v20q1 25 3 50t7 50q1 5 2.5 11t3.5 12q1 2 1 4t1 4l-1 1h-1q-2 -3 -5 -6q-15 -23 -27 -47t-23 -50q-2 -5 -5 -7.5t-6 -6.5
h-1l-9 3q-2 -7 -7 -3q-5 3 -8 10q-2 8 -2.5 15.5t-2.5 15.5q-1 5 -1 10t-1 10q0 1 -0.5 1.5t-0.5 1.5q-2 -2 -2 -3q-4 -11 -7 -22.5l-6 -23.5t-5.5 -24.5t-5.5 -24.5q-3 -11 -12 -11h-2q-6 5 -14 1q-2 -1 -3.5 2t-1.5 7v12t2 12q10 74 44 143h-2q-13 -1 -25 -1.5t-25 -2.5
h-9l-2 -2q1 0 2 -1q5 0 8.5 0.5t8.5 0.5q10 1 19 1t19 1q1 0 2 -1l-2 -1l-23 -2l-24 -2q-6 0 -7 -6l-18 -69.5t-14 -69.5q-1 -8 -1 -15t-1 -15v-4t-1 -3q-7 -2 -11 -1q-8 0 -9 9q-2 8 -1.5 16.5t0.5 16.5q0 2 -0.5 3.5t-0.5 3.5v-3v5l1 1q0 5 1 7l-1 1v-7q-2 4 -2 7l4 33.5
t5 33.5q2 8 4.5 15t4.5 15h-1h1v-4q1 1 1 4q2 5 3.5 10t3.5 10q1 3 -4 3l-28 -3q2 2 4 2q7 2 13 2.5t13 1.5q1 0 1.5 1t1.5 1q-1 1 -3 1l-27.5 -4t-27.5 -7q-5 -2 -8 4q-1 2 -2 4.5t-2 4.5q-2 11 8 15q28 10 61 13q21 2 42 2.5t41 2.5q11 2 14 -9l2 -6v1q4 6 6 0t6 -1
q2 6 10 2q3 -2 5 -3t3 -6q3 -24 4 -48t1 -48q0 -3 1 -4l1 -1q0 -1 0.5 -0.5t0.5 1.5q3 4 7 14q11 28 26.5 53.5t32.5 50.5q5 7 15 6.5t14 -8.5v-8zM214 620q0 1 1 2v5q-2 13 -3 27t-3 29v34q0 1 -0.5 1.5t-0.5 1.5q-2 -2 -2 -3q-2 -8 -2 -14q2 -17 3.5 -35t3.5 -35
q0 -3 0.5 -6t0.5 -5q0 -1 1 -1t1 -1zM53 727h3q-1 0 -1.5 -0.5t-1.5 -0.5q-1 1 -4 1h4zM67 616h-1v-1zM66 621l1 1q-1 0 -1 1v-1v-1zM63 595l-1 -2l-1 1zM79 697h-1l1 -1v1z" />
    <glyph glyph-name="asterisk" unicode="*" horiz-adv-x="233" 
d="M73 669l-1 -1l-19 11q-22 11 -26.5 18t6.5 18q6 6 13 9q2 2 7 2t7 -2q11 -6 20 -12t20 -12v5q0 6 0.5 11t0.5 10q2 24 7 31t19 2q5 -2 13 -8q6 -6 6 -14l-4 -27l24 14q2 2 7 2t7 -2q7 -3 13 -9q11 -11 6.5 -18t-26.5 -18l-19 -11l-1 1l-4 -2l8 -5l37 -25q3 -3 5.5 -8
t3.5 -10t0 -8.5t-4 -2.5q-8 1 -16.5 4l-14.5 5l-19.5 10l-19.5 10l-3 -13l-4 -22l-4 -22q-1 -4 -5 -8t-8 -7t-7.5 -3.5t-3.5 2.5q-4 8 -4.5 17t-0.5 15q1 10 1.5 19.5t2.5 19.5l-35 -18l-14.5 -5t-16.5 -4q-3 -1 -4 2.5t0 8.5t3.5 10t5.5 8l37 25l8 5z" />
    <glyph glyph-name="acute" unicode="&#xb4;" horiz-adv-x="170" 
d="M58 657q-12 1 -18 3q-19 5 -21 13t10 22l22 24.5l22 25.5q8 10 14.5 16t13.5 7.5t16 0t21 -5.5q11 -3 12 -7t-6 -12l-33.5 -38.5l-33.5 -38.5q-4 -5 -9.5 -6.5t-9.5 -3.5z" />
    <glyph glyph-name="Ccedilla" unicode="&#xc7;" horiz-adv-x="440" 
d="M43 360q-2 -1 -2 -1.5t-1 -1.5v-1q7 2 9 6t4 11q20 85 53.5 163.5t84.5 153.5q5 8 12 15t12 15q3 3 6 5t6 6q7 7 15.5 7h17.5t17 2t13 12q32 8 66 -1q19 -6 24 -11t5 -26q1 -35 0.5 -70t-0.5 -70q-1 -20 -0.5 -40t11.5 -39q5 -9 0 -14t-11 -5q-17 -2 -34 -2.5t-33 1.5
q-17 4 -22 17.5l-10 27.5q-3 7 -4.5 13.5t-3.5 13.5l-10.5 -12t-7.5 -13q-43 -97 -68.5 -196t-27.5 -204q-1 -11 0 -22.5l2 -22.5l18 17l81.5 75t71.5 82q12 18 31 15q10 -2 20 -2.5t18 -2.5q10 -2 13 -8t-3 -14q-7 -8 -12 -17t-11 -17q-41 -47 -84 -90.5t-90 -85.5
q-16 -14 -33 -21.5t-37 -9.5v-19v-14q0 -11 7 -12q6 0 16 -4q9 -3 14.5 -10t7.5 -16.5t1 -20.5t-7 -20l-3 -5q-20 -18 -39.5 -25t-42.5 3q-7 4 -9 8q-7 8 1 12q10 3 23 3q9 2 12 6t4 15q1 26 -14 32q-3 1 -6 1t-6 2q-14 6 -13 25q0 11 0.5 21t1.5 20q-11 2 -20 8.5l-20 14.5
q-23 20 -34.5 42.5t-16 46.5t-4.5 49t1 51q2 16 5 32.5t7 32.5q1 4 1 9t1 9.5t5 7.5t12 3q-1 6 1.5 12.5t4.5 12.5t2.5 12.5t-3.5 13.5h1q-1 1 -1 3h4zM158 76q2 2 4 1.5t4 -0.5q-2 5 -5 8t-5 8q-4 40 -3 79.5t8 78.5q23 143 79 273q2 5 1.5 9.5t-0.5 9.5l-10 -26
q-36 -72 -58.5 -148t-31.5 -154q-5 -32 -4.5 -65t1.5 -66q2 -14 5 -15t15 7zM17 180q0 -15 -1.5 -31.5t9.5 -30.5l-2 29.5t-3 29.5q0 3 -1 4.5t-2 3.5v-5zM260 575q-3 -6 -7 -12t-7 -12q-1 -2 -2 -2.5t-1 -1.5q11 2 13 9.5t6 14.5q0 2 -2 4zM27 97q0 2 0.5 3.5t0.5 2.5
l-3 14q-1 -3 -1 -6.5t-2 -7.5q0 -1 5 -6zM29 276q2 5 5 6l-3 7q-1 -2 -2 -3.5t-2 -3.5q0 -2 2 -6zM24 224q0 -1 2 -3q0 1 1 2l-2 2zM32 79l-1 1v-2z" />
    <glyph glyph-name="ccedilla" unicode="&#xe7;" horiz-adv-x="399" 
d="M149 -35q0 -11 7 -12q6 0 16 -4q9 -3 14.5 -10t7.5 -16.5t1 -20.5t-7 -20l-3 -5q-20 -18 -39.5 -25t-42.5 3q-7 4 -9 8q-7 8 1 12q10 3 23 3q9 2 12 6t4 15q1 26 -14 32q-3 1 -6 1t-6 2q-14 6 -13 25q0 24 3 45q-38 14 -55.5 41.5t-27.5 63.5q-11 45 -14.5 90.5t7.5 91.5
q11 43 24 85.5l27 84.5q11 33 31.5 61t47.5 51q11 8 23.5 14t23.5 13q10 5 19 11t19 12q26 18 56.5 12.5t50.5 -33.5q2 -3 4 -5.5t5 -4.5q23 -13 26.5 -31.5t-1.5 -38.5q-8 -26 -17.5 -51.5l-18.5 -51.5q-6 -18 -14.5 -22.5t-24.5 0.5l-10 3q-13 5 -19.5 8t-8.5 7.5t0 11.5
t7 20q7 19 11.5 38l9.5 39q-15 2 -22.5 -7.5t-15.5 -18.5q-75 -96 -102 -214q-8 -42 -15 -85.5t1 -86.5q3 -17 9.5 -34.5t14.5 -34.5q5 -13 15 -15t20 6q20 15 38.5 30.5t35.5 32.5q20 21 23.5 23.5t4 1.5t4 1.5t23.5 23.5q8 8 17.5 13.5l18.5 10.5q5 1 12 0t12 -3
q22 -7 7 -28l-59 -75l-3 -4q1 2 -2 -1t-12 -14q-34 -39 -72 -51t-83 -4v-12v-14z" />
    <glyph glyph-name="Oslash" unicode="&#xd8;" 
d="M92 -44q-6 1 -6.5 6.5t5.5 22.5v1q-52 2 -76 61q-13 30 -13.5 61t1.5 63q5 88 22 171.5t49 166.5q20 56 51 103q12 19 22 30t22.5 15t29.5 3t44 -4q6 -1 11.5 -2.5t11.5 -2.5q16 -5 20 -2t-1 17q-8 19 -15 37.5t-27 28.5q-3 2 -6 6t-6 9q-5 6 -2 12t13 6q30 1 60.5 -1.5
t57.5 -15.5l9 23q8 21 16 24q3 1 7.5 -11.5t2.5 -21.5q-4 -14 -8 -26l-2 -5q11 -9 20.5 -21t16.5 -29l13.5 -32t11.5 -32q5 -15 7 -30t6 -29h5q-4 -34 -5.5 -67.5t-7.5 -67.5q-16 -94 -46 -180.5t-87 -165.5q-11 -15 -24 -28.5l-27 -27.5q-29 -24 -63 -18q-19 5 -36.5 1
t-34.5 -10q-5 -2 -10 -3l-10 -2v-2q-6 -20 -10 -25.5t-12 -5.5zM108 67q2 -6 4 -10l25 77q-2 32 -1 63t6 63q10 85 27 167t53 161q2 2 1.5 5.5t-0.5 6.5q-3 -2 -6.5 -4t-5.5 -5q-15 -24 -27 -51q-29 -72 -45 -146.5t-29 -150.5q-5 -34 -7 -68.5t-5 -69.5h2zM300 117
q38 65 60.5 134t36.5 141q8 44 11.5 86t-1.5 86q-2 -3 -5 -5.5t-3 -7.5q-1 -7 0.5 -14t1.5 -14q-7 -91 -33.5 -177t-69.5 -169q-19 -37 -41.5 -72t-48.5 -67q-3 -2 -4 -6t-3 -9h10t10 3l19.5 14t17.5 16l22 29t20 32zM168 141q0 -5 2 -11l4 -12q5 5 9.5 8.5t7.5 8.5
q48 80 74.5 165t37.5 176q2 12 2.5 23.5t1.5 23.5l-70.5 -187l-68.5 -189v-6zM243 540q-28 -72 -43.5 -144t-23.5 -146l13 37l35.5 104.5t37.5 104.5l39 101q-1 1 -1 3q-1 5 -3.5 8t-4.5 7l-9 -4.5t-7 -5.5q-10 -16 -18.5 -32t-14.5 -33zM391 627q0 4 1.5 6.5t-0.5 4.5
q-1 4 -3.5 6t-4.5 5l3 -12q1 -2 1.5 -5t2.5 -5zM396 599q0 -2 1 -3v4z" />
    <glyph glyph-name="oslash" unicode="&#xf8;" horiz-adv-x="367" 
d="M95 -20q-5 1 -5.5 5t4.5 17q3 12 6.5 24t7.5 24q-17 7 -32 21t-22 37q-25 77 -13 155q2 11 3.5 22.5t3.5 22.5l-4.5 -4.5t-3.5 -6.5q-21 -76 -8 -156q3 -11 4.5 -22.5t2.5 -22.5l1 -1q-18 12 -24.5 29t-11.5 37q-9 38 -6 76t13 76q17 68 48.5 126.5t86.5 103.5
q29 25 63.5 37t73.5 3q5 -1 15 -5l11 28q7 17 13 18q2 1 5.5 -8.5t1.5 -16.5q-1 -5 -2.5 -10t-3.5 -10q-2 -3 -2.5 -6t-2.5 -5l21 -13q7 -3 11.5 -8.5t-0.5 -14.5q-5 -8 -10.5 -13.5t-15.5 -4.5l-7 2q-5 2 -8.5 3t-7.5 2l-29 -78q21 -2 37 -13t22 -34q11 -32 14 -63.5
t-6 -62.5q-11 -50 -31 -94.5t-55 -80.5q-21 -21 -45 -34t-53 -16q-15 -2 -29 1l-7.5 -21t-6.5 -21q-5 -15 -8 -19.5t-9 -4.5zM118 119q3 -11 6 -19l22.5 67l23.5 67l27.5 80.5t29.5 80.5l22.5 59l23.5 60q-11 -8 -20 -17q-51 -48 -82.5 -108t-48.5 -127q-8 -30 -10.5 -60
t2.5 -60q2 -6 2 -11.5t2 -11.5zM255 243q15 42 16.5 83.5t-12.5 83.5l-61.5 -162.5l-59.5 -165.5q10 -1 36 22q32 28 49.5 64.5t31.5 74.5zM52 336q8 3 6.5 8.5t-3.5 11.5z" />
    <glyph glyph-name="AE" unicode="&#xc6;" horiz-adv-x="856" 
d="M460 105l42 23q48 26 98.5 42.5t103.5 27.5q10 2 20 2t19 -8q2 -5 5 -8.5t6 -7.5q-4 -2 -7.5 -5t-7.5 -5l-69.5 -21t-69.5 -19q-15 -4 -18 -18q21 6 41.5 13.5t42.5 13.5q21 7 42 11.5t41 9.5q5 1 10 1h10q7 -2 7 -6t-1.5 -7.5t-3.5 -5.5t-5.5 -2.5t-6.5 -1.5
q-73 -20 -141 -48.5t-135 -60.5q-16 -8 -32.5 -14.5t-33.5 -14.5q-24 -8 -39 2q-19 4 -30 26q-15 11 -17 26.5t1 32.5q-5 18 -9 36.5t-7 36.5q-3 20 -4.5 41.5t-3.5 41.5q-2 11 -6.5 16t-15.5 5q-46 0 -89 3q-14 1 -21.5 -4t-12.5 -19q-11 -37 -23.5 -74.5l-25.5 -75.5
l-10 -31q-1 -3 -2.5 -7t-4.5 -7q-5 -11 -17.5 -15.5t-23.5 0.5q-7 3 -9 6.5t-1.5 7t2 8t1.5 8.5l61 178l3 11q7 16 -10 14h-44t-42 -1h-14.5t-8 2t-4 7t-3.5 14l-4 17q-3 32 28 32q29 1 57 1.5t57 -1.5q14 -1 20.5 4t11.5 17l30.5 68.5l32.5 67.5q29 57 59 109q10 15 14 31
t4 33q0 15 1.5 30t3.5 29q2 25 25 24q13 0 25 0.5t23 1.5v-1h-1q0 -5 0.5 -10.5t-1.5 -9.5q-8 -24 -8 -48.5t1 -49.5q0 -2 0.5 -3.5t0.5 -3.5q2 2 2 4t1 3q13 13 13 30.5t5 31.5q2 6 2 10.5t2 9.5q5 10 13.5 10t12.5 -10q3 -8 6 -18.5t3 -19.5q1 -44 0.5 -87t1.5 -88v-38
l22 59q3 8 7.5 17.5l8.5 17.5q5 11 7 21.5t-10 19.5q-2 2 -3 8.5t0 11.5q0 5 2 9.5t4 9.5q-5 -4 -10.5 -6.5t-10.5 -5.5q-4 -2 -8.5 -3t-9.5 -3q2 7 1 13.5t2 10.5q14 14 31 22l60 25t62 21q42 11 85 19t85 20q24 6 43 2.5t34 -13.5t25.5 -24.5t17.5 -29.5q2 -6 5.5 -11.5
t3.5 -10.5t-4 -11.5t-9 -11.5q-6 -5 -13 8q-8 14 -19.5 14t-22.5 -2l-166 -34q-23 -5 -35 -18.5t-20 -35.5q-12 -33 -27 -65.5l-29 -64.5q-2 -5 -2 -8.5t-2 -8.5q5 0 9.5 -1t9.5 0l64.5 11.5t64.5 12.5q34 6 48.5 -2.5t28.5 -41.5q3 -11 1.5 -16.5t-14.5 -8.5l-55.5 -14
t-56.5 -16q-33 -8 -65 -19t-64 -20q-28 -10 -35 -39q0 -1 -0.5 -1.5t-0.5 -1.5q2 -6 1.5 -13t-8.5 -11l-6 -24t-7 -24q2 -21 5.5 -42t5.5 -42v-5zM287 321q16 -3 16 15v101h-1v105q0 3 -1.5 5.5t-2.5 4.5q-2 -2 -5.5 -3.5t-5.5 -3.5l-4 -8l-77 -187q-5 -11 -1 -15t13 -5
l34.5 -4t34.5 -5zM38 74q-2 -15 11 -14q-5 -2 -11.5 -3.5t-1.5 -12.5q1 -2 -3 -4.5t-5 -2.5q-2 2 -5.5 4.5t-3.5 3.5l14 47l14 46q1 2 2.5 2.5t2.5 2.5v-9q-4 -15 -7 -30.5t-7 -29.5zM720 663q-28 3 -51.5 -5.5t-48.5 -16.5q-2 0 -3 -2t-1 -3q3 -3 7 -3zM801 674q5 2 8 7
q-4 2 -7 2l-74 -19q18 2 36.5 4.5t36.5 5.5zM582 108q-42 9 -72 -27q31 24 72 27zM469 74l-4 -2q0 -1 0.5 -1.5t0.5 -2.5q1 0 1.5 0.5t1.5 0.5v5zM383 616l-1 -1h1v1zM499 79h3h-3z" />
    <glyph glyph-name="OE" unicode="&#x152;" horiz-adv-x="784" 
d="M802 683q2 -6 5.5 -11.5t3.5 -10.5t-4 -11.5t-9 -11.5q-6 -5 -13 8q-8 14 -19.5 14t-22.5 -2l-166 -34q-23 -5 -35 -18.5t-20 -35.5q-12 -33 -27 -65.5l-29 -64.5q-2 -5 -2 -8.5t-2 -8.5q5 0 9.5 -1t9.5 0l64.5 11.5t64.5 12.5q34 6 48.5 -2.5t28.5 -41.5
q3 -11 1.5 -16.5t-14.5 -8.5l-55.5 -14t-56.5 -16q-33 -8 -65 -19t-64 -20q-19 -8 -27 -20l-8 -25.5t-9 -25.5l-16 -57.5t-17 -56.5q-1 -5 -2 -9.5t-1 -8.5q0 -8 3.5 -11t9.5 1q17 8 33 16.5l31 16.5q48 26 98.5 42.5t103.5 27.5q10 2 20 2t19 -8q2 -5 5 -8.5t6 -7.5
q-4 -2 -7.5 -5t-7.5 -5l-69.5 -21t-69.5 -19q-15 -4 -18 -18q21 6 41.5 13.5t42.5 13.5q21 7 42 11.5t41 9.5q5 1 10 1h10q7 -2 7 -6t-1.5 -7.5t-3.5 -5.5t-5.5 -2.5t-6.5 -1.5q-73 -20 -141 -48.5t-135 -60.5q-16 -8 -32.5 -14.5t-33.5 -14.5q-32 -12 -52 15q-2 1 -2 3
t-1 3q-16 6 -24 17l-13 -13q-29 -24 -63 -18q-19 5 -36.5 1t-34.5 -10q-86 -31 -119 53q-13 30 -13.5 61t1.5 63q5 88 22 171.5t49 166.5q20 56 51 103q12 19 22 30t22.5 15t29.5 3t44 -4q6 -1 11.5 -2.5t11.5 -2.5q16 -5 20 -2t-1 17q-8 19 -15 37.5t-27 28.5q-3 2 -6 6
t-6 9q-5 6 -2 12t13 6q26 1 52.5 -1t51 -10.5t44.5 -25.5t32 -47q2 -6 4 -9q25 11 50 20t51 17q42 11 85 19t85 20q24 6 43 2.5t34 -13.5t25.5 -24.5t17.5 -29.5zM153 141q0 -5 2 -11l4 -12q5 5 9.5 8.5t7.5 8.5q48 80 74.5 165t37.5 176q3 24 3.5 48t1.5 48h-2q-1 14 -6 28
q-1 5 -3.5 8t-4.5 7l-9 -4.5t-7 -5.5q-10 -16 -18.5 -32t-14.5 -33q-38 -97 -54 -196.5t-21 -202.5zM126 87q-11 88 1 173q10 85 27 167t53 161q2 2 1.5 5.5t-0.5 6.5q-3 -2 -6.5 -4t-5.5 -5q-15 -24 -27 -51q-29 -72 -45 -146.5t-29 -150.5q-5 -34 -7 -68.5t-5 -69.5h2
l8 -38q2 -5 5 -9t6 -9q5 5 9.5 7.5t6.5 7.5t4 11t2 12zM263 98q6 20 11.5 41l10.5 41q-2 -2 -2 -3q-19 -37 -41.5 -72t-48.5 -67q-3 -2 -4 -6t-3 -9h10t10 3l19.5 14t17.5 16l16 20q1 5 1.5 10.5t2.5 11.5zM648 663q-28 3 -51.5 -5.5t-48.5 -16.5q-2 0 -3 -2t-1 -3
q3 -3 7 -3zM729 674q5 2 8 7q-4 2 -7 2l-74 -19q18 2 36.5 4.5t36.5 5.5zM510 108q-42 9 -72 -27q31 24 72 27zM385 535q2 5 4 9l4 8q0 3 -0.5 6t-0.5 6q-2 -3 -5 -5.5t-3 -7.5q-1 -6 1 -16zM397 74q-5 -3 -11 -4.5t-11 -3.5l22 3v5zM353 54l-1 -2q1 0 1 -0.5t1 -0.5l2 1
q-1 0 -1 1t-1 1h-1zM382 600l-1 -1q0 -2 0.5 -2.5t0.5 -1.5v5zM371 65l1 -1v1h-1zM430 79h-3h3z" />
    <glyph glyph-name="ae" unicode="&#xe6;" horiz-adv-x="677" 
d="M272 89l-2 29.5t-3 29.5q0 5 -3 13q-4 -2 -7 -4t-5 -6l-40 -49.5l-40 -51.5q-23 -29 -53.5 -38t-66.5 -7q-30 2 -46.5 19t-19.5 39q-11 60 0.5 117.5t45.5 110.5q22 31 54 46.5t69 18.5q25 2 50.5 0t49.5 -13q3 -3 7.5 -3.5t7.5 -1.5q14 -2 16 9q6 46 12.5 91l13.5 92
q2 25 -18 10l-52.5 -42t-51.5 -44q-16 -14 -30 -30.5l-28 -32.5q-12 -14 -33.5 -17t-35.5 9q-2 1 -3 5.5t0 6.5q2 7 6 11.5t8 8.5q13 16 26.5 30t25.5 30q17 18 32 37t32 36q40 42 97 58q16 5 30 0t28 -18q11 -10 22.5 -18.5t26.5 -10.5q17 -3 21 -9.5t-1 -24.5
q30 23 65.5 25t76.5 -20q22 -11 43 -25l41 -28q4 -2 7.5 -6t5.5 -7q4 -5 6 -11.5t5 -11.5q-6 2 -11.5 3l-11.5 2q-3 1 -7 3.5t-7 0.5q-10 -4 -18.5 -1t-16.5 9q-16 10 -27 0l-27.5 -22.5t-22.5 -24.5q-17 -27 -32.5 -55.5l-31.5 -57.5v-10q8 -4 15 -4q25 1 47.5 2.5
t46.5 2.5q2 1 6.5 0t6.5 -4q3 -2 6 -6.5t2 -8.5q0 -4 -3.5 -7t-7.5 -4l-91 -6q-6 -1 -12.5 -1h-12.5q-15 -1 -25 -7t-13 -22q-4 -14 -9.5 -28t-6.5 -28q-2 -32 -0.5 -54t4.5 -36t7 -21.5t8 -11.5q5 1 15 5q45 15 85.5 36t77.5 50l13 10q3 1 9 1t11.5 -1t9.5 -3t4 -4
q-1 -5 -4 -9.5t-7 -8.5q-37 -34 -78.5 -61t-90.5 -46q-29 -11 -64 -9q-32 1 -56 18q-3 -6 -3 -13q0 -5 -6 -6q-19 -11 -38 -1t-23 33q-1 14 -1.5 27t-2.5 27h2zM106 103q3 2 5 3t4 3l67 71.5l67 71.5q5 7 6 12q1 7 -4 15t-13.5 14t-18 8t-15.5 -2q-12 -6 -23.5 -13.5
t-20.5 -18.5q-26 -34 -37.5 -74t-19.5 -82q0 -2 1 -4zM415 311l15.5 52.5l15.5 53.5q-20 -28 -32 -59.5t-22 -64.5q-1 -2 1 -4.5t3 -4.5q2 0 5.5 0.5t3.5 2.5q4 6 6 12zM363 101q1 -8 1.5 -14.5t2.5 -11.5l17 168q-3 0 -5 -2t-4 -11q-6 -32 -11 -64t-1 -65zM81 122l-3 -10
q0 -2 1 -3.5t1 -4.5q1 3 2 5l2 4zM296 587l8 -2q-3 3 -2 3h-5zM80 87h1l-1 2v-2zM395 244q1 -1 1 0h-1z" />
    <glyph glyph-name="oe" unicode="&#x153;" horiz-adv-x="657" 
d="M395 311l15.5 52.5l15.5 53.5q-20 -28 -32 -59.5t-22 -64.5q-1 -2 1 -4.5t3 -4.5q2 0 5.5 0.5t3.5 2.5q4 6 6 12zM343 101q1 -8 1.5 -14.5t2.5 -11.5l17 168q-3 0 -5 -2t-4 -11q-6 -32 -11 -64t-1 -65zM408 37h-1h1zM375 244q1 -1 1 0h-1zM633 464q4 -5 6 -11.5t5 -11.5
q-6 2 -11.5 3l-11.5 2q-3 1 -7 3.5t-7 0.5q-10 -4 -18.5 -1t-16.5 9q-16 10 -27 0l-27.5 -22.5t-22.5 -24.5q-17 -27 -32.5 -55.5l-31.5 -57.5v-10q8 -4 15 -4q25 1 47.5 2.5t46.5 2.5q2 1 6.5 0t6.5 -4q3 -2 6 -6.5t2 -8.5q0 -4 -3.5 -7t-7.5 -4l-91 -6q-6 -1 -12.5 -1
h-12.5q-15 -1 -25 -7t-13 -22q-4 -14 -9.5 -28t-6.5 -28q-2 -32 -0.5 -54t4.5 -36t7 -21.5t8 -11.5q5 1 15 5q45 15 85.5 36t77.5 50l13 10q3 1 9 1t11.5 -1t9.5 -3t4 -4q-1 -5 -4 -9.5t-7 -8.5q-37 -34 -78.5 -61t-90.5 -46q-29 -11 -64 -9q-64 3 -92 63q-6 13 -11 26
l-10 27q-8 -12 -21 -25q-21 -21 -45 -34t-53 -16q-14 -2 -29 0.5t-29 10t-25.5 20.5t-17.5 32q-25 77 -13 155q2 11 3.5 22.5t3.5 22.5l-4.5 -4.5t-3.5 -6.5q-21 -76 -8 -156q3 -11 4.5 -22.5t2.5 -22.5l1 -1q-18 12 -24.5 29t-11.5 37q-9 38 -6 76t13 76q17 68 48.5 126.5
t86.5 103.5q29 25 63.5 37t73.5 3q15 -3 29 -11.5l27 -16.5q7 -3 11.5 -8.5t-0.5 -14.5q-5 -8 -10.5 -13.5t-15.5 -4.5l-7 2q-20 11 -35.5 2.5t-28.5 -21.5q-51 -48 -82.5 -108t-48.5 -127q-8 -30 -10.5 -60t2.5 -60q2 -6 2 -11.5t2 -11.5q5 -17 9 -26t10 -10.5t14.5 4
t22.5 17.5q32 28 49.5 64.5t31.5 74.5q17 46 17.5 91.5t-18.5 91.5q-9 18 10 18q17 -2 32 -7.5t24 -18.5l15 28q11 20 24.5 37t29.5 32q32 29 70.5 34t83.5 -19q22 -11 43 -25l41 -28q4 -2 7.5 -6t5.5 -7zM45 336q8 3 6.5 8.5t-3.5 11.5z" />
    <glyph glyph-name="Agrave" unicode="&#xc0;" horiz-adv-x="518" 
d="M480 110q2 -13 3.5 -25.5t3.5 -25.5q5 -23 -13 -33q-11 -7 -22 -13l-22 -12q-20 -8 -38 -0.5t-26 30.5l-16 61.5t-14 63.5q-3 20 -4.5 41.5t-3.5 41.5q-2 11 -6.5 16t-15.5 5q-46 0 -89 3q-14 1 -21.5 -4t-12.5 -19q-11 -37 -23.5 -74.5l-25.5 -75.5q-2 -8 -5 -15.5
t-5 -15.5q-1 -3 -2.5 -7t-4.5 -7q-5 -11 -17.5 -15.5t-23.5 0.5q-7 3 -9 6.5t-1.5 7t2 8t1.5 8.5l31 89l30 89q1 2 1.5 5.5t1.5 5.5q7 16 -10 14h-44t-42 -1h-14.5t-8 2t-4 7t-3.5 14l-2 8t-2 9q-3 32 28 32q29 1 57 1.5t57 -1.5q14 -1 20.5 4t11.5 17l30.5 68.5l32.5 67.5
q29 57 59 109q10 15 14 31t4 33q0 15 1.5 30t3.5 29q2 25 25 24q13 0 25 0.5t23 1.5h-1h1v-1q-1 0 -1 1q0 -5 0.5 -11t-1.5 -10q-8 -24 -8 -48.5t1 -49.5q0 -2 0.5 -3.5t0.5 -3.5q2 2 2 4t1 3q13 13 13 30.5t5 31.5q2 6 2 10.5t2 9.5q5 10 13.5 10t12.5 -10q3 -8 6 -18.5
t3 -19.5q1 -44 0.5 -87t1.5 -88q1 -42 3 -84l4 -84q1 -9 3.5 -15t12.5 -11q7 -5 10.5 -15t5.5 -19q2 -8 2 -18t-16 -13q-3 -1 -5 -8t-2 -12q2 -28 6 -55t7 -55zM307 321q16 -3 16 15v101h-1v105q0 3 -1.5 5.5t-2.5 4.5q-2 -2 -5.5 -3.5t-5.5 -3.5q-1 -2 -1.5 -4t-2.5 -4
l-39 -94l-38 -93q-5 -11 -1 -15t13 -5l34.5 -4t34.5 -5zM403 616l-1 -1h1v1zM58 74q-2 -15 11 -14q-5 -2 -11.5 -3.5t-1.5 -12.5q1 -2 -3 -4.5t-5 -2.5q-2 2 -5.5 4.5t-3.5 3.5l14 47l14 46q1 2 2.5 2.5t2.5 2.5v-9q-4 -15 -7 -30.5t-7 -29.5zM410 857q-4 2 -9.5 3.5
t-9.5 6.5l-33.5 38.5l-33.5 38.5q-7 8 -6 12t12 7q12 4 21 5.5t16 0t13.5 -7.5t14.5 -16l22 -25.5l22 -24.5q12 -14 10 -22t-21 -13q-6 -2 -18 -3z" />
    <glyph glyph-name="Aacute" unicode="&#xc1;" horiz-adv-x="518" 
d="M480 110q2 -13 3.5 -25.5t3.5 -25.5q5 -23 -13 -33q-11 -7 -22 -13l-22 -12q-20 -8 -38 -0.5t-26 30.5l-16 61.5t-14 63.5q-3 20 -4.5 41.5t-3.5 41.5q-2 11 -6.5 16t-15.5 5q-46 0 -89 3q-14 1 -21.5 -4t-12.5 -19q-11 -37 -23.5 -74.5l-25.5 -75.5q-2 -8 -5 -15.5
t-5 -15.5q-1 -3 -2.5 -7t-4.5 -7q-5 -11 -17.5 -15.5t-23.5 0.5q-7 3 -9 6.5t-1.5 7t2 8t1.5 8.5l31 89l30 89q1 2 1.5 5.5t1.5 5.5q7 16 -10 14h-44t-42 -1h-14.5t-8 2t-4 7t-3.5 14l-2 8t-2 9q-3 32 28 32q29 1 57 1.5t57 -1.5q14 -1 20.5 4t11.5 17l30.5 68.5l32.5 67.5
q29 57 59 109q10 15 14 31t4 33q0 15 1.5 30t3.5 29q2 25 25 24q13 0 25 0.5t23 1.5h-1h1v-1q-1 0 -1 1q0 -5 0.5 -11t-1.5 -10q-8 -24 -8 -48.5t1 -49.5q0 -2 0.5 -3.5t0.5 -3.5q2 2 2 4t1 3q13 13 13 30.5t5 31.5q2 6 2 10.5t2 9.5q5 10 13.5 10t12.5 -10q3 -8 6 -18.5
t3 -19.5q1 -44 0.5 -87t1.5 -88q1 -42 3 -84l4 -84q1 -9 3.5 -15t12.5 -11q7 -5 10.5 -15t5.5 -19q2 -8 2 -18t-16 -13q-3 -1 -5 -8t-2 -12q2 -28 6 -55t7 -55zM307 321q16 -3 16 15v101h-1v105q0 3 -1.5 5.5t-2.5 4.5q-2 -2 -5.5 -3.5t-5.5 -3.5q-1 -2 -1.5 -4t-2.5 -4
l-39 -94l-38 -93q-5 -11 -1 -15t13 -5l34.5 -4t34.5 -5zM403 616l-1 -1h1v1zM58 74q-2 -15 11 -14q-5 -2 -11.5 -3.5t-1.5 -12.5q1 -2 -3 -4.5t-5 -2.5q-2 2 -5.5 4.5t-3.5 3.5l14 47l14 46q1 2 2.5 2.5t2.5 2.5v-9q-4 -15 -7 -30.5t-7 -29.5zM370 857q-12 1 -18 3
q-19 5 -21 13t10 22l22 24.5l22 25.5q8 10 14.5 16t13.5 7.5t16 0t21 -5.5q11 -3 12 -7t-6 -12l-33.5 -38.5l-33.5 -38.5q-4 -5 -9.5 -6.5t-9.5 -3.5z" />
    <glyph glyph-name="Acircumflex" unicode="&#xc2;" horiz-adv-x="518" 
d="M480 110q2 -13 3.5 -25.5t3.5 -25.5q5 -23 -13 -33q-11 -7 -22 -13l-22 -12q-20 -8 -38 -0.5t-26 30.5l-16 61.5t-14 63.5q-3 20 -4.5 41.5t-3.5 41.5q-2 11 -6.5 16t-15.5 5q-46 0 -89 3q-14 1 -21.5 -4t-12.5 -19q-11 -37 -23.5 -74.5l-25.5 -75.5q-2 -8 -5 -15.5
t-5 -15.5q-1 -3 -2.5 -7t-4.5 -7q-5 -11 -17.5 -15.5t-23.5 0.5q-7 3 -9 6.5t-1.5 7t2 8t1.5 8.5l31 89l30 89q1 2 1.5 5.5t1.5 5.5q7 16 -10 14h-44t-42 -1h-14.5t-8 2t-4 7t-3.5 14l-2 8t-2 9q-3 32 28 32q29 1 57 1.5t57 -1.5q14 -1 20.5 4t11.5 17l30.5 68.5l32.5 67.5
q29 57 59 109q10 15 14 31t4 33q0 15 1.5 30t3.5 29q2 25 25 24q13 0 25 0.5t23 1.5h-1h1v-1q-1 0 -1 1q0 -5 0.5 -11t-1.5 -10q-8 -24 -8 -48.5t1 -49.5q0 -2 0.5 -3.5t0.5 -3.5q2 2 2 4t1 3q13 13 13 30.5t5 31.5q2 6 2 10.5t2 9.5q5 10 13.5 10t12.5 -10q3 -8 6 -18.5
t3 -19.5q1 -44 0.5 -87t1.5 -88q1 -42 3 -84l4 -84q1 -9 3.5 -15t12.5 -11q7 -5 10.5 -15t5.5 -19q2 -8 2 -18t-16 -13q-3 -1 -5 -8t-2 -12q2 -28 6 -55t7 -55zM307 321q16 -3 16 15v101h-1v105q0 3 -1.5 5.5t-2.5 4.5q-2 -2 -5.5 -3.5t-5.5 -3.5q-1 -2 -1.5 -4t-2.5 -4
l-39 -94l-38 -93q-5 -11 -1 -15t13 -5l34.5 -4t34.5 -5zM403 616l-1 -1h1v1zM58 74q-2 -15 11 -14q-5 -2 -11.5 -3.5t-1.5 -12.5q1 -2 -3 -4.5t-5 -2.5q-2 2 -5.5 4.5t-3.5 3.5l14 47l14 46q1 2 2.5 2.5t2.5 2.5v-9q-4 -15 -7 -30.5t-7 -29.5zM429 848q-3 2 -8 4t-10 7
q-4 3 -7 7t-6 9q-13 17 -17.5 18t-16.5 -15q-8 -11 -19.5 -13.5l-21.5 -4.5q-4 -1 -8.5 2t-6.5 6q-1 2 0 7t3 7l27.5 31.5t28.5 29.5q18 18 44 13t38 -29q7 -11 11.5 -23t9.5 -24q11 -18 -11 -25q-7 -2 -13.5 -3.5t-16.5 -3.5z" />
    <glyph glyph-name="Atilde" unicode="&#xc3;" horiz-adv-x="518" 
d="M480 110q2 -13 3.5 -25.5t3.5 -25.5q5 -23 -13 -33q-11 -7 -22 -13l-22 -12q-20 -8 -38 -0.5t-26 30.5l-16 61.5t-14 63.5q-3 20 -4.5 41.5t-3.5 41.5q-2 11 -6.5 16t-15.5 5q-46 0 -89 3q-14 1 -21.5 -4t-12.5 -19q-11 -37 -23.5 -74.5l-25.5 -75.5q-2 -8 -5 -15.5
t-5 -15.5q-1 -3 -2.5 -7t-4.5 -7q-5 -11 -17.5 -15.5t-23.5 0.5q-7 3 -9 6.5t-1.5 7t2 8t1.5 8.5l31 89l30 89q1 2 1.5 5.5t1.5 5.5q7 16 -10 14h-44t-42 -1h-14.5t-8 2t-4 7t-3.5 14l-2 8t-2 9q-3 32 28 32q29 1 57 1.5t57 -1.5q14 -1 20.5 4t11.5 17l30.5 68.5l32.5 67.5
q29 57 59 109q10 15 14 31t4 33q0 15 1.5 30t3.5 29q2 25 25 24q13 0 25 0.5t23 1.5h-1h1v-1q-1 0 -1 1q0 -5 0.5 -11t-1.5 -10q-8 -24 -8 -48.5t1 -49.5q0 -2 0.5 -3.5t0.5 -3.5q2 2 2 4t1 3q13 13 13 30.5t5 31.5q2 6 2 10.5t2 9.5q5 10 13.5 10t12.5 -10q3 -8 6 -18.5
t3 -19.5q1 -44 0.5 -87t1.5 -88q1 -42 3 -84l4 -84q1 -9 3.5 -15t12.5 -11q7 -5 10.5 -15t5.5 -19q2 -8 2 -18t-16 -13q-3 -1 -5 -8t-2 -12q2 -28 6 -55t7 -55zM307 321q16 -3 16 15v101h-1v105q0 3 -1.5 5.5t-2.5 4.5q-2 -2 -5.5 -3.5t-5.5 -3.5q-1 -2 -1.5 -4t-2.5 -4
l-39 -94l-38 -93q-5 -11 -1 -15t13 -5l34.5 -4t34.5 -5zM403 616l-1 -1h1v1zM58 74q-2 -15 11 -14q-5 -2 -11.5 -3.5t-1.5 -12.5q1 -2 -3 -4.5t-5 -2.5q-2 2 -5.5 4.5t-3.5 3.5l14 47l14 46q1 2 2.5 2.5t2.5 2.5v-9q-4 -15 -7 -30.5t-7 -29.5zM411 881q-37 0 -58 22
q-8 6 -14.5 7.5t-11.5 -7.5q-7 -12 -17.5 -14t-21.5 -5q-2 -1 -6 0.5t-6 3.5t-1.5 6.5t2.5 7.5q7 15 21.5 25t32 13.5t34.5 0t30 -15.5q10 -9 16 -13.5t12 -5t12.5 3.5t18.5 12l12.5 8.5l13.5 9.5q4 2 8.5 5t9.5 4q8 2 14.5 0.5t14.5 -1.5q-4 -6 -7 -12.5t-8 -11.5
q-22 -20 -46.5 -32t-54.5 -11z" />
    <glyph glyph-name="Adieresis" unicode="&#xc4;" horiz-adv-x="518" 
d="M480 110q2 -13 3.5 -25.5t3.5 -25.5q5 -23 -13 -33q-11 -7 -22 -13l-22 -12q-20 -8 -38 -0.5t-26 30.5l-16 61.5t-14 63.5q-3 20 -4.5 41.5t-3.5 41.5q-2 11 -6.5 16t-15.5 5q-46 0 -89 3q-14 1 -21.5 -4t-12.5 -19q-11 -37 -23.5 -74.5l-25.5 -75.5q-2 -8 -5 -15.5
t-5 -15.5q-1 -3 -2.5 -7t-4.5 -7q-5 -11 -17.5 -15.5t-23.5 0.5q-7 3 -9 6.5t-1.5 7t2 8t1.5 8.5l31 89l30 89q1 2 1.5 5.5t1.5 5.5q7 16 -10 14h-44t-42 -1h-14.5t-8 2t-4 7t-3.5 14l-2 8t-2 9q-3 32 28 32q29 1 57 1.5t57 -1.5q14 -1 20.5 4t11.5 17l30.5 68.5l32.5 67.5
q29 57 59 109q10 15 14 31t4 33q0 15 1.5 30t3.5 29q2 25 25 24q13 0 25 0.5t23 1.5h-1h1v-1q-1 0 -1 1q0 -5 0.5 -11t-1.5 -10q-8 -24 -8 -48.5t1 -49.5q0 -2 0.5 -3.5t0.5 -3.5q2 2 2 4t1 3q13 13 13 30.5t5 31.5q2 6 2 10.5t2 9.5q5 10 13.5 10t12.5 -10q3 -8 6 -18.5
t3 -19.5q1 -44 0.5 -87t1.5 -88q1 -42 3 -84l4 -84q1 -9 3.5 -15t12.5 -11q7 -5 10.5 -15t5.5 -19q2 -8 2 -18t-16 -13q-3 -1 -5 -8t-2 -12q2 -28 6 -55t7 -55zM307 321q16 -3 16 15v101h-1v105q0 3 -1.5 5.5t-2.5 4.5q-2 -2 -5.5 -3.5t-5.5 -3.5q-1 -2 -1.5 -4t-2.5 -4
l-39 -94l-38 -93q-5 -11 -1 -15t13 -5l34.5 -4t34.5 -5zM403 616l-1 -1h1v1zM58 74q-2 -15 11 -14q-5 -2 -11.5 -3.5t-1.5 -12.5q1 -2 -3 -4.5t-5 -2.5q-2 2 -5.5 4.5t-3.5 3.5l14 47l14 46q1 2 2.5 2.5t2.5 2.5v-9q-4 -15 -7 -30.5t-7 -29.5zM339 932q41 0 43 -29
q1 -11 -4.5 -19t-16.5 -11q-15 -3 -30 -3q-31 1 -31 34q0 14 5 19t22 7q10 2 12 2zM445 932q41 0 43 -29q1 -11 -4.5 -19t-16.5 -11q-15 -3 -30 -3q-31 1 -31 34q0 14 5 19t22 7q10 2 12 2z" />
    <glyph glyph-name="Aring" unicode="&#xc5;" horiz-adv-x="518" 
d="M480 110q2 -13 3.5 -25.5t3.5 -25.5q5 -23 -13 -33q-11 -7 -22 -13l-22 -12q-20 -8 -38 -0.5t-26 30.5l-16 61.5t-14 63.5q-3 20 -4.5 41.5t-3.5 41.5q-2 11 -6.5 16t-15.5 5q-46 0 -89 3q-14 1 -21.5 -4t-12.5 -19q-11 -37 -23.5 -74.5l-25.5 -75.5q-2 -8 -5 -15.5
t-5 -15.5q-1 -3 -2.5 -7t-4.5 -7q-5 -11 -17.5 -15.5t-23.5 0.5q-7 3 -9 6.5t-1.5 7t2 8t1.5 8.5l31 89l30 89q1 2 1.5 5.5t1.5 5.5q7 16 -10 14h-44t-42 -1h-14.5t-8 2t-4 7t-3.5 14l-2 8t-2 9q-3 32 28 32q29 1 57 1.5t57 -1.5q14 -1 20.5 4t11.5 17l30.5 68.5l32.5 67.5
q29 57 59 109q10 15 14 31t4 33q0 15 1.5 30t3.5 29q2 25 25 24q13 0 25 0.5t23 1.5h-1h1v-1q-1 0 -1 1q0 -5 0.5 -11t-1.5 -10q-8 -24 -8 -48.5t1 -49.5q0 -2 0.5 -3.5t0.5 -3.5q2 2 2 4t1 3q13 13 13 30.5t5 31.5q2 6 2 10.5t2 9.5q5 10 13.5 10t12.5 -10q3 -8 6 -18.5
t3 -19.5q1 -44 0.5 -87t1.5 -88q1 -42 3 -84l4 -84q1 -9 3.5 -15t12.5 -11q7 -5 10.5 -15t5.5 -19q2 -8 2 -18t-16 -13q-3 -1 -5 -8t-2 -12q2 -28 6 -55t7 -55zM307 321q16 -3 16 15v101h-1v105q0 3 -1.5 5.5t-2.5 4.5q-2 -2 -5.5 -3.5t-5.5 -3.5q-1 -2 -1.5 -4t-2.5 -4
l-39 -94l-38 -93q-5 -11 -1 -15t13 -5l34.5 -4t34.5 -5zM403 616l-1 -1h1v1zM58 74q-2 -15 11 -14q-5 -2 -11.5 -3.5t-1.5 -12.5q1 -2 -3 -4.5t-5 -2.5q-2 2 -5.5 4.5t-3.5 3.5l14 47l14 46q1 2 2.5 2.5t2.5 2.5v-9q-4 -15 -7 -30.5t-7 -29.5zM397 838q-25 0 -40.5 13.5
t-17.5 34.5q-2 18 5 34t19 29q4 5 9.5 7.5t8.5 1.5q16 -7 30.5 -12.5t25.5 -19.5t9 -28t-9 -28q-13 -30 -40 -32zM392 888q1 -4 1 -10t2 -13q1 -2 5 -3.5t6 -0.5q5 3 8.5 10.5t4.5 16.5t-0.5 17.5t-6.5 13.5q-2 2 -5.5 4t-4.5 1q-6 -3 -8 -11q-2 -5 -1.5 -11t-0.5 -14z" />
    <glyph glyph-name="Egrave" unicode="&#xc8;" horiz-adv-x="525" 
d="M543 683q2 -6 5.5 -11.5t3.5 -10.5t-4 -11.5t-9 -11.5q-6 -5 -13 8q-8 14 -19.5 14t-22.5 -2q-42 -8 -83 -17t-83 -17q-23 -5 -35 -18.5t-20 -35.5q-12 -33 -27 -65.5l-29 -64.5q-2 -5 -2 -8.5t-2 -8.5q5 0 9.5 -1t9.5 0l64.5 11.5t64.5 12.5q34 6 48.5 -2.5t28.5 -41.5
q3 -11 1.5 -16.5t-14.5 -8.5l-55.5 -14t-56.5 -16q-33 -8 -65 -19t-64 -20q-28 -10 -35 -39l-21 -73.5t-21 -72.5q-1 -5 -2 -9.5t-1 -8.5q0 -8 3.5 -11t9.5 1q17 8 33 16.5l31 16.5q48 26 98.5 42.5t103.5 27.5q10 2 20 2t19 -8q2 -5 5 -8.5t6 -7.5q-4 -2 -7.5 -5t-7.5 -5
l-69.5 -21t-69.5 -19q-15 -4 -18 -18q21 6 41.5 13.5t42.5 13.5q21 7 42 11.5t41 9.5q5 1 10 1h10q7 -2 7 -6t-1.5 -7.5t-3.5 -5.5t-5.5 -2.5t-6.5 -1.5q-73 -20 -141 -48.5t-135 -60.5q-16 -8 -32.5 -14.5t-33.5 -14.5q-32 -12 -52 15q-2 1 -2 3t-1 3q-14 6 -21.5 14.5
t-9.5 19t-0.5 22.5t4.5 25q15 52 27 105q1 4 -0.5 7.5t-1.5 7.5l2 -2l-2 2h2q5 16 10.5 31l11.5 30q1 5 -0.5 6t-7.5 10q-2 3 -2 8.5t2 10.5l37.5 103l37.5 103q3 8 7.5 17.5l8.5 17.5q5 11 7 21.5t-10 19.5q-2 2 -3 8.5t0 11.5q0 5 2 9.5t4 9.5q-5 -4 -10.5 -6.5
t-10.5 -5.5q-4 -2 -8.5 -3t-9.5 -3q2 7 1 13.5t2 10.5q14 14 31 22l60 25t62 21q42 11 85 19t85 20q24 6 43 2.5t34 -13.5t25.5 -24.5t17.5 -29.5zM57 316h-1v-1zM177 79q-7 0 -10 1q2 -1 9 -1q33 26 75 29q-44 9 -74 -29zM138 74q-5 -3 -11 -4.5t-11 -3.5q5 1 11 1.5
t11 1.5v5zM112 65l1 -1v1h-1zM94 54l-1 -2q1 0 1 -0.5t1 -0.5l2 1q-1 0 -1 1t-1 1h-1zM292 633q23 8 47 15l50 15q-28 3 -51.5 -5.5t-48.5 -16.5q-2 0 -3 -2t-1 -3q3 -3 7 -3zM470 674q5 2 8 7q-4 2 -7 2l-37.5 -9.5t-36.5 -9.5q18 2 36.5 4.5t36.5 5.5zM287 857
q-4 2 -9.5 3.5t-9.5 6.5l-33.5 38.5l-33.5 38.5q-7 8 -6 12t12 7q12 4 21 5.5t16 0t13.5 -7.5t14.5 -16l22 -25.5l22 -24.5q12 -14 10 -22t-21 -13q-6 -2 -18 -3z" />
    <glyph glyph-name="Eacute" unicode="&#xc9;" horiz-adv-x="525" 
d="M543 683q2 -6 5.5 -11.5t3.5 -10.5t-4 -11.5t-9 -11.5q-6 -5 -13 8q-8 14 -19.5 14t-22.5 -2q-42 -8 -83 -17t-83 -17q-23 -5 -35 -18.5t-20 -35.5q-12 -33 -27 -65.5l-29 -64.5q-2 -5 -2 -8.5t-2 -8.5q5 0 9.5 -1t9.5 0l64.5 11.5t64.5 12.5q34 6 48.5 -2.5t28.5 -41.5
q3 -11 1.5 -16.5t-14.5 -8.5l-55.5 -14t-56.5 -16q-33 -8 -65 -19t-64 -20q-28 -10 -35 -39l-21 -73.5t-21 -72.5q-1 -5 -2 -9.5t-1 -8.5q0 -8 3.5 -11t9.5 1q17 8 33 16.5l31 16.5q48 26 98.5 42.5t103.5 27.5q10 2 20 2t19 -8q2 -5 5 -8.5t6 -7.5q-4 -2 -7.5 -5t-7.5 -5
l-69.5 -21t-69.5 -19q-15 -4 -18 -18q21 6 41.5 13.5t42.5 13.5q21 7 42 11.5t41 9.5q5 1 10 1h10q7 -2 7 -6t-1.5 -7.5t-3.5 -5.5t-5.5 -2.5t-6.5 -1.5q-73 -20 -141 -48.5t-135 -60.5q-16 -8 -32.5 -14.5t-33.5 -14.5q-32 -12 -52 15q-2 1 -2 3t-1 3q-14 6 -21.5 14.5
t-9.5 19t-0.5 22.5t4.5 25q15 52 27 105q1 4 -0.5 7.5t-1.5 7.5l2 -2l-2 2h2q5 16 10.5 31l11.5 30q1 5 -0.5 6t-7.5 10q-2 3 -2 8.5t2 10.5l37.5 103l37.5 103q3 8 7.5 17.5l8.5 17.5q5 11 7 21.5t-10 19.5q-2 2 -3 8.5t0 11.5q0 5 2 9.5t4 9.5q-5 -4 -10.5 -6.5
t-10.5 -5.5q-4 -2 -8.5 -3t-9.5 -3q2 7 1 13.5t2 10.5q14 14 31 22l60 25t62 21q42 11 85 19t85 20q24 6 43 2.5t34 -13.5t25.5 -24.5t17.5 -29.5zM57 316h-1v-1zM177 79q-7 0 -10 1q2 -1 9 -1q33 26 75 29q-44 9 -74 -29zM138 74q-5 -3 -11 -4.5t-11 -3.5q5 1 11 1.5
t11 1.5v5zM112 65l1 -1v1h-1zM94 54l-1 -2q1 0 1 -0.5t1 -0.5l2 1q-1 0 -1 1t-1 1h-1zM292 633q23 8 47 15l50 15q-28 3 -51.5 -5.5t-48.5 -16.5q-2 0 -3 -2t-1 -3q3 -3 7 -3zM470 674q5 2 8 7q-4 2 -7 2l-37.5 -9.5t-36.5 -9.5q18 2 36.5 4.5t36.5 5.5zM237 857
q-12 1 -18 3q-19 5 -21 13t10 22l22 24.5l22 25.5q8 10 14.5 16t13.5 7.5t16 0t21 -5.5q11 -3 12 -7t-6 -12l-33.5 -38.5l-33.5 -38.5q-4 -5 -9.5 -6.5t-9.5 -3.5z" />
    <glyph glyph-name="Ecircumflex" unicode="&#xca;" horiz-adv-x="525" 
d="M543 683q2 -6 5.5 -11.5t3.5 -10.5t-4 -11.5t-9 -11.5q-6 -5 -13 8q-8 14 -19.5 14t-22.5 -2q-42 -8 -83 -17t-83 -17q-23 -5 -35 -18.5t-20 -35.5q-12 -33 -27 -65.5l-29 -64.5q-2 -5 -2 -8.5t-2 -8.5q5 0 9.5 -1t9.5 0l64.5 11.5t64.5 12.5q34 6 48.5 -2.5t28.5 -41.5
q3 -11 1.5 -16.5t-14.5 -8.5l-55.5 -14t-56.5 -16q-33 -8 -65 -19t-64 -20q-28 -10 -35 -39l-21 -73.5t-21 -72.5q-1 -5 -2 -9.5t-1 -8.5q0 -8 3.5 -11t9.5 1q17 8 33 16.5l31 16.5q48 26 98.5 42.5t103.5 27.5q10 2 20 2t19 -8q2 -5 5 -8.5t6 -7.5q-4 -2 -7.5 -5t-7.5 -5
l-69.5 -21t-69.5 -19q-15 -4 -18 -18q21 6 41.5 13.5t42.5 13.5q21 7 42 11.5t41 9.5q5 1 10 1h10q7 -2 7 -6t-1.5 -7.5t-3.5 -5.5t-5.5 -2.5t-6.5 -1.5q-73 -20 -141 -48.5t-135 -60.5q-16 -8 -32.5 -14.5t-33.5 -14.5q-32 -12 -52 15q-2 1 -2 3t-1 3q-14 6 -21.5 14.5
t-9.5 19t-0.5 22.5t4.5 25q15 52 27 105q1 4 -0.5 7.5t-1.5 7.5l2 -2l-2 2h2q5 16 10.5 31l11.5 30q1 5 -0.5 6t-7.5 10q-2 3 -2 8.5t2 10.5l37.5 103l37.5 103q3 8 7.5 17.5l8.5 17.5q5 11 7 21.5t-10 19.5q-2 2 -3 8.5t0 11.5q0 5 2 9.5t4 9.5q-5 -4 -10.5 -6.5
t-10.5 -5.5q-4 -2 -8.5 -3t-9.5 -3q2 7 1 13.5t2 10.5q14 14 31 22l60 25t62 21q42 11 85 19t85 20q24 6 43 2.5t34 -13.5t25.5 -24.5t17.5 -29.5zM57 316h-1v-1zM177 79q-7 0 -10 1q2 -1 9 -1q33 26 75 29q-44 9 -74 -29zM138 74q-5 -3 -11 -4.5t-11 -3.5q5 1 11 1.5
t11 1.5v5zM112 65l1 -1v1h-1zM94 54l-1 -2q1 0 1 -0.5t1 -0.5l2 1q-1 0 -1 1t-1 1h-1zM292 633q23 8 47 15l50 15q-28 3 -51.5 -5.5t-48.5 -16.5q-2 0 -3 -2t-1 -3q3 -3 7 -3zM470 674q5 2 8 7q-4 2 -7 2l-37.5 -9.5t-36.5 -9.5q18 2 36.5 4.5t36.5 5.5zM299 848q-3 2 -8 4
t-10 7q-4 3 -7 7t-6 9q-13 17 -17.5 18t-16.5 -15q-8 -11 -19.5 -13.5l-21.5 -4.5q-4 -1 -8.5 2t-6.5 6q-1 2 0 7t3 7l27.5 31.5t28.5 29.5q18 18 44 13t38 -29q7 -11 11.5 -23t9.5 -24q11 -18 -11 -25q-7 -2 -13.5 -3.5t-16.5 -3.5z" />
    <glyph glyph-name="Edieresis" unicode="&#xcb;" horiz-adv-x="525" 
d="M543 683q2 -6 5.5 -11.5t3.5 -10.5t-4 -11.5t-9 -11.5q-6 -5 -13 8q-8 14 -19.5 14t-22.5 -2q-42 -8 -83 -17t-83 -17q-23 -5 -35 -18.5t-20 -35.5q-12 -33 -27 -65.5l-29 -64.5q-2 -5 -2 -8.5t-2 -8.5q5 0 9.5 -1t9.5 0l64.5 11.5t64.5 12.5q34 6 48.5 -2.5t28.5 -41.5
q3 -11 1.5 -16.5t-14.5 -8.5l-55.5 -14t-56.5 -16q-33 -8 -65 -19t-64 -20q-28 -10 -35 -39l-21 -73.5t-21 -72.5q-1 -5 -2 -9.5t-1 -8.5q0 -8 3.5 -11t9.5 1q17 8 33 16.5l31 16.5q48 26 98.5 42.5t103.5 27.5q10 2 20 2t19 -8q2 -5 5 -8.5t6 -7.5q-4 -2 -7.5 -5t-7.5 -5
l-69.5 -21t-69.5 -19q-15 -4 -18 -18q21 6 41.5 13.5t42.5 13.5q21 7 42 11.5t41 9.5q5 1 10 1h10q7 -2 7 -6t-1.5 -7.5t-3.5 -5.5t-5.5 -2.5t-6.5 -1.5q-73 -20 -141 -48.5t-135 -60.5q-16 -8 -32.5 -14.5t-33.5 -14.5q-32 -12 -52 15q-2 1 -2 3t-1 3q-14 6 -21.5 14.5
t-9.5 19t-0.5 22.5t4.5 25q15 52 27 105q1 4 -0.5 7.5t-1.5 7.5l2 -2l-2 2h2q5 16 10.5 31l11.5 30q1 5 -0.5 6t-7.5 10q-2 3 -2 8.5t2 10.5l37.5 103l37.5 103q3 8 7.5 17.5l8.5 17.5q5 11 7 21.5t-10 19.5q-2 2 -3 8.5t0 11.5q0 5 2 9.5t4 9.5q-5 -4 -10.5 -6.5
t-10.5 -5.5q-4 -2 -8.5 -3t-9.5 -3q2 7 1 13.5t2 10.5q14 14 31 22l60 25t62 21q42 11 85 19t85 20q24 6 43 2.5t34 -13.5t25.5 -24.5t17.5 -29.5zM57 316h-1v-1zM177 79q-7 0 -10 1q2 -1 9 -1q33 26 75 29q-44 9 -74 -29zM138 74q-5 -3 -11 -4.5t-11 -3.5q5 1 11 1.5
t11 1.5v5zM112 65l1 -1v1h-1zM94 54l-1 -2q1 0 1 -0.5t1 -0.5l2 1q-1 0 -1 1t-1 1h-1zM292 633q23 8 47 15l50 15q-28 3 -51.5 -5.5t-48.5 -16.5q-2 0 -3 -2t-1 -3q3 -3 7 -3zM470 674q5 2 8 7q-4 2 -7 2l-37.5 -9.5t-36.5 -9.5q18 2 36.5 4.5t36.5 5.5zM207 932
q41 0 43 -29q1 -11 -4.5 -19t-16.5 -11q-15 -3 -30 -3q-31 1 -31 34q0 14 5 19t22 7q10 2 12 2zM313 932q41 0 43 -29q1 -11 -4.5 -19t-16.5 -11q-15 -3 -30 -3q-31 1 -31 34q0 14 5 19t22 7q10 2 12 2z" />
    <glyph glyph-name="Igrave" unicode="&#xcc;" horiz-adv-x="302" 
d="M396 702q10 -15 6.5 -26t-20.5 -13q-20 -2 -39.5 -5.5t-40.5 -4.5q-30 -1 -44.5 -14.5t-18.5 -45.5q-13 -90 -29.5 -177.5t-30.5 -176.5q-6 -37 -9.5 -75t-7.5 -75q-2 -10 1.5 -16.5t17.5 -7.5q10 0 20 -2.5t20 -5.5q18 -5 32 -20q5 -6 7.5 -14t7.5 -16q-8 -3 -14 -5
t-14 -2q-44 2 -86.5 0t-83.5 -11q-1 -1 -5 -1h-3q-8 15 -19.5 17t-22.5 7q-7 4 -12.5 13.5t-7.5 18.5q-2 10 4 17t17 9q11 4 21.5 5.5t22.5 2.5q10 1 15 5t4 15q0 11 1 21l2 21q3 47 6.5 94t7.5 95q2 34 7.5 65.5t10.5 65.5q3 32 8.5 65.5l10.5 65.5q1 4 1 6.5t1 6.5
q0 8 -2.5 12t-13.5 3q-18 -1 -37 0q-8 1 -14.5 4t-2.5 15q1 1 -1.5 3.5t-4.5 2.5q-16 2 -24 13t-12 25q-2 15 4.5 23.5t23.5 15.5q54 20 113.5 26t118.5 8q8 -1 13 -1h10q10 -1 18.5 -1.5t17.5 -0.5q-9 -1 -17 -1.5t-16 -1.5q-3 0 -7 -4q4 -2 5 -2q8 -2 14 -2
q23 2 39.5 -8.5t30.5 -30.5zM257 857q-4 2 -9.5 3.5t-9.5 6.5l-33.5 38.5l-33.5 38.5q-7 8 -6 12t12 7q12 4 21 5.5t16 0t13.5 -7.5t14.5 -16l22 -25.5l22 -24.5q12 -14 10 -22t-21 -13q-6 -2 -18 -3z" />
    <glyph glyph-name="Iacute" unicode="&#xcd;" horiz-adv-x="302" 
d="M396 702q10 -15 6.5 -26t-20.5 -13q-20 -2 -39.5 -5.5t-40.5 -4.5q-30 -1 -44.5 -14.5t-18.5 -45.5q-13 -90 -29.5 -177.5t-30.5 -176.5q-6 -37 -9.5 -75t-7.5 -75q-2 -10 1.5 -16.5t17.5 -7.5q10 0 20 -2.5t20 -5.5q18 -5 32 -20q5 -6 7.5 -14t7.5 -16q-8 -3 -14 -5
t-14 -2q-44 2 -86.5 0t-83.5 -11q-1 -1 -5 -1h-3q-8 15 -19.5 17t-22.5 7q-7 4 -12.5 13.5t-7.5 18.5q-2 10 4 17t17 9q11 4 21.5 5.5t22.5 2.5q10 1 15 5t4 15q0 11 1 21l2 21q3 47 6.5 94t7.5 95q2 34 7.5 65.5t10.5 65.5q3 32 8.5 65.5l10.5 65.5q1 4 1 6.5t1 6.5
q0 8 -2.5 12t-13.5 3q-18 -1 -37 0q-8 1 -14.5 4t-2.5 15q1 1 -1.5 3.5t-4.5 2.5q-16 2 -24 13t-12 25q-2 15 4.5 23.5t23.5 15.5q54 20 113.5 26t118.5 8q8 -1 13 -1h10q10 -1 18.5 -1.5t17.5 -0.5q-9 -1 -17 -1.5t-16 -1.5q-3 0 -7 -4q4 -2 5 -2q8 -2 14 -2
q23 2 39.5 -8.5t30.5 -30.5zM209 857q-12 1 -18 3q-19 5 -21 13t10 22l22 24.5l22 25.5q8 10 14.5 16t13.5 7.5t16 0t21 -5.5q11 -3 12 -7t-6 -12l-33.5 -38.5l-33.5 -38.5q-4 -5 -9.5 -6.5t-9.5 -3.5z" />
    <glyph glyph-name="Icircumflex" unicode="&#xce;" horiz-adv-x="302" 
d="M396 702q10 -15 6.5 -26t-20.5 -13q-20 -2 -39.5 -5.5t-40.5 -4.5q-30 -1 -44.5 -14.5t-18.5 -45.5q-13 -90 -29.5 -177.5t-30.5 -176.5q-6 -37 -9.5 -75t-7.5 -75q-2 -10 1.5 -16.5t17.5 -7.5q10 0 20 -2.5t20 -5.5q18 -5 32 -20q5 -6 7.5 -14t7.5 -16q-8 -3 -14 -5
t-14 -2q-44 2 -86.5 0t-83.5 -11q-1 -1 -5 -1h-3q-8 15 -19.5 17t-22.5 7q-7 4 -12.5 13.5t-7.5 18.5q-2 10 4 17t17 9q11 4 21.5 5.5t22.5 2.5q10 1 15 5t4 15q0 11 1 21l2 21q3 47 6.5 94t7.5 95q2 34 7.5 65.5t10.5 65.5q3 32 8.5 65.5l10.5 65.5q1 4 1 6.5t1 6.5
q0 8 -2.5 12t-13.5 3q-18 -1 -37 0q-8 1 -14.5 4t-2.5 15q1 1 -1.5 3.5t-4.5 2.5q-16 2 -24 13t-12 25q-2 15 4.5 23.5t23.5 15.5q54 20 113.5 26t118.5 8q8 -1 13 -1h10q10 -1 18.5 -1.5t17.5 -0.5q-9 -1 -17 -1.5t-16 -1.5q-3 0 -7 -4q4 -2 5 -2q8 -2 14 -2
q23 2 39.5 -8.5t30.5 -30.5zM260 848q-3 2 -8 4t-10 7q-4 3 -7 7t-6 9q-13 17 -17.5 18t-16.5 -15q-8 -11 -19.5 -13.5l-21.5 -4.5q-4 -1 -8.5 2t-6.5 6q-1 2 0 7t3 7l27.5 31.5t28.5 29.5q18 18 44 13t38 -29q7 -11 11.5 -23t9.5 -24q11 -18 -11 -25q-7 -2 -13.5 -3.5
t-16.5 -3.5z" />
    <glyph glyph-name="Idieresis" unicode="&#xcf;" horiz-adv-x="302" 
d="M396 702q10 -15 6.5 -26t-20.5 -13q-20 -2 -39.5 -5.5t-40.5 -4.5q-30 -1 -44.5 -14.5t-18.5 -45.5q-13 -90 -29.5 -177.5t-30.5 -176.5q-6 -37 -9.5 -75t-7.5 -75q-2 -10 1.5 -16.5t17.5 -7.5q10 0 20 -2.5t20 -5.5q18 -5 32 -20q5 -6 7.5 -14t7.5 -16q-8 -3 -14 -5
t-14 -2q-44 2 -86.5 0t-83.5 -11q-1 -1 -5 -1h-3q-8 15 -19.5 17t-22.5 7q-7 4 -12.5 13.5t-7.5 18.5q-2 10 4 17t17 9q11 4 21.5 5.5t22.5 2.5q10 1 15 5t4 15q0 11 1 21l2 21q3 47 6.5 94t7.5 95q2 34 7.5 65.5t10.5 65.5q3 32 8.5 65.5l10.5 65.5q1 4 1 6.5t1 6.5
q0 8 -2.5 12t-13.5 3q-18 -1 -37 0q-8 1 -14.5 4t-2.5 15q1 1 -1.5 3.5t-4.5 2.5q-16 2 -24 13t-12 25q-2 15 4.5 23.5t23.5 15.5q54 20 113.5 26t118.5 8q8 -1 13 -1h10q10 -1 18.5 -1.5t17.5 -0.5q-9 -1 -17 -1.5t-16 -1.5q-3 0 -7 -4q4 -2 5 -2q8 -2 14 -2
q23 2 39.5 -8.5t30.5 -30.5zM173 932q41 0 43 -29q1 -11 -4.5 -19t-16.5 -11q-15 -3 -30 -3q-31 1 -31 34q0 14 5 19t22 7q10 2 12 2zM279 932q41 0 43 -29q1 -11 -4.5 -19t-16.5 -11q-15 -3 -30 -3q-31 1 -31 34q0 14 5 19t22 7q10 2 12 2z" />
    <glyph glyph-name="Eth" unicode="&#xd0;" horiz-adv-x="656" 
d="M627 517q47 -99 -11 -182q-23 -35 -53.5 -61t-63.5 -49q-60 -40 -123.5 -71t-130.5 -59q-15 -6 -23 -11t-12 -12t-4 -18.5t2 -30.5q1 -9 5.5 -19.5t-5.5 -21.5t-22.5 -13t-26.5 -1q-41 3 -61 44q-10 18 -14 20t-20 -3q-25 -8 -53 -13q-12 -3 -24 -2t-22.5 6t-17.5 14
t-8 23q-1 4 3 8t7 6l43.5 15.5l43.5 15.5q5 2 10.5 5t10.5 5l-22 -2l-38 -12.5t-39 -11.5q-2 -1 -7 2t-10 5q4 2 6 5t7 5l54.5 23.5l56.5 23.5q11 5 17.5 14t7.5 26q2 48 7.5 97.5t12.5 97.5h-20.5t-19.5 1q-11 1 -23.5 3.5t-23.5 7.5q-4 1 -2.5 6t6 10t11 10t12.5 6
q17 2 33 3t32 3h2q5 29 8 56.5t5 51.5q0 14 4 24.5t7 21.5q1 3 0.5 5.5t-0.5 4.5q-6 0 -9 -1q-20 -7 -30.5 -2t-21.5 26q-6 10 -8.5 20t-12.5 19q-9 8 -7 20.5t13 20.5t23 14.5t24 11.5q49 19 101 24.5t106 0.5q45 -4 87.5 -15.5t84.5 -34.5q43 -23 73.5 -58t44.5 -87
q5 -11 9 -21.5t9 -19.5zM383 297q16 4 41 22t50.5 43.5t48 56t34 60t8.5 55.5t-28 42q-50 32 -100.5 46t-97.5 16h-37t-17.5 -4t-7 -15t-6.5 -33l-4 -32l-17 -109h15.5t15.5 1q4 0 10 -3t8 -6q5 -5 7 -10l4 -10q5 -22 -5 -28t-45 -4h-19l-10 -73.5t-9 -67.5q-2 -6 -0.5 -11
t2.5 -10q4 1 8.5 1.5t9.5 2.5q32 19 70.5 34t70.5 36zM311 705q-2 0 -6 -4q2 0 2.5 -1t2.5 -1q13 -2 24.5 -3t22.5 -3q-2 3 -2.5 6.5t-2.5 3.5q-11 2 -20.5 2h-20.5zM423 265q5 7 10.5 12.5l12.5 12.5q-4 -2 -8.5 -3.5t-8 -3.5t-5.5 -6t-1 -12zM386 693l-4 4t-4 2
q-4 -2 -8.5 -3.5t-9.5 -3.5q5 0 9.5 -0.5t8.5 -0.5t8 2zM451 293q6 1 12 3t1 15q-2 -5 -6.5 -9t-6.5 -9zM159 684q4 2 7 4.5t6 4.5q-1 0 -2.5 1t-3.5 2l-6.5 -4.5t-6.5 -5.5q4 -2 6 -2zM408 260q5 1 15 5q-7 4 -11 3.5t-4 -8.5zM257 185q7 2 12.5 2.5t10.5 2.5q-3 -1 -6.5 0
t-6.5 1.5t-5.5 -0.5t-4.5 -6zM136 683q-5 0 -9.5 -0.5t-3.5 -9.5zM354 230q-5 1 -9 1t-2 -8q2 2 4.5 3.5t6.5 3.5zM332 222q3 -3 2 -3q2 0 3.5 1t3.5 2h-9zM141 684h-2h4q-1 1 -2 1v-1zM221 171l-1 1v-1h1zM424 680h1h-1zM426 681q-1 0 -1 -1z" />
    <glyph glyph-name="Ntilde" unicode="&#xd1;" horiz-adv-x="585" 
d="M563 609q24 -9 32 -19.5t4 -35.5q-5 -38 -11 -75t-13 -74l-36.5 -191l-36.5 -191q-2 -10 -6.5 -16.5t-16.5 -8.5q-18 -4 -28.5 -5.5t-18 1.5t-14 11.5t-17.5 24.5l-19 31t-20 31q-2 4 -6.5 6t-8.5 5q13 -26 26.5 -49.5l27.5 -46.5q1 -6 -1 -10q-3 1 -6 1t-4 2l-18.5 25
t-14.5 26l-56 118.5l-54 119.5q-19 42 -34.5 84.5t-32.5 84.5q-2 6 -2 12v12t-2 11.5t-8 10.5q-3 2 -7 8q-1 -3 -3.5 -5t-2.5 -4q-2 -14 -3.5 -27.5t-3.5 -26.5l-21 -195.5l-21 -195.5q-2 -17 -0.5 -33.5t4.5 -33.5q2 -9 2 -15t-9 -8q-11 -5 -21.5 -2t-15.5 11
q-5 12 -9.5 25t-6.5 27q-2 26 -2 53v53q0 2 -1 6t-2 6q-2 -2 -3.5 -5t-1.5 -7l-3 -135q-1 -5 -0.5 -8.5t-0.5 -7.5q-1 -6 -8 -9q-2 0 -6.5 2.5t-5.5 5.5q-4 10 -7 20.5t-4 21.5q-3 27 -4 54.5t0 54.5q1 103 5 204.5t21 202.5q7 42 17.5 83l20.5 82q2 8 5.5 15.5t6.5 15.5
q2 4 5 8t5 3q13 -3 25.5 -2.5t24.5 0.5t24 -3t24 -12q10 -9 6 -20q-5 -11 -3 -20t9 -19q8 -13 12 -27t10 -28l28.5 -70l29.5 -69v-2v3l34.5 -93.5l35.5 -92.5q11 -29 24.5 -56.5l26.5 -56.5q2 -4 4.5 -6.5l5.5 -5.5q1 4 3 6.5t3 6.5l15.5 128.5t17.5 126.5q3 25 9.5 48.5
l12.5 46.5q0 5 4 9q4 -6 4 -11q5 -23 4.5 -44.5t-8.5 -42.5q8 -4 11 -0.5t4 10.5q6 29 11 56t12 56q1 5 2 9.5t2 10.5q4 24 13.5 28.5t34.5 -3.5zM49 175q0 5 -0.5 8.5t-0.5 8.5q-3 -3 -3 -7v-17q2 0 2 -1l1.5 4.5t0.5 3.5zM50 213v1l-2 4q-1 -2 -3 -4q1 -1 2 -1t2 -1z
M51 238q-1 0 -1 1l-2 -2l1 -2q3 0 3 2zM52 279q1 2 3 4l-2 6q-3 -3 -3 -2q-1 -3 2 -8zM59 360l-1 3v-3h1zM265 341q0 2 0.5 4.5t-0.5 4.5q-6 17 -12.5 33.5t-12.5 33.5q-32 87 -61 174q-1 6 -5 14q-2 -5 -3.5 -7t-1.5 -4q2 -14 2 -28t4 -28q16 -50 36 -95q11 -25 22.5 -48.5
l23.5 -47.5q1 -2 3.5 -3t4.5 -3zM306 208h-2l1 -3zM313 186q1 3 2 4l-2 2v-6zM328 166l-6 6q0 -1 -2 -1q-1 0 -1 -1q3 -2 5 -2.5t4 -1.5v-6v6zM457 277l-3 1l2 -2zM452 308q2 -6 2 -11q0 5 -2 11q2 5 4 9.5t4 10.5v1v-1q-2 -6 -4 -10.5t-4 -9.5zM466 354q13 12 2 30
q0 -8 -0.5 -15t-1.5 -15zM469 386q12 13 13 25t-9 29q-2 -13 -2.5 -26.5t-1.5 -27.5zM462 547l1 -4h-2zM370 881q-37 0 -58 22q-8 6 -14.5 7.5t-11.5 -7.5q-7 -12 -17.5 -14t-21.5 -5q-2 -1 -6 0.5t-6 3.5t-1.5 6.5t2.5 7.5q7 15 21.5 25t32 13.5t34.5 0t30 -15.5
q10 -9 16 -13.5t12 -5t12.5 3.5t18.5 12l12.5 8.5l13.5 9.5q4 2 8.5 5t9.5 4q8 2 14.5 0.5t14.5 -1.5q-4 -6 -7 -12.5t-8 -11.5q-22 -20 -46.5 -32t-54.5 -11z" />
    <glyph glyph-name="Ograve" unicode="&#xd2;" 
d="M465 558q-4 -34 -5.5 -67.5t-7.5 -67.5q-16 -94 -46 -180.5t-87 -165.5q-11 -15 -24 -28.5l-27 -27.5q-29 -24 -63 -18q-19 5 -36.5 1t-34.5 -10q-86 -31 -119 53q-13 30 -13.5 61t1.5 63q5 88 22 171.5t49 166.5q20 56 51 103q12 19 22 30t22.5 15t29.5 3t44 -4
q6 -1 11.5 -2.5t11.5 -2.5q16 -5 20 -2t-1 17q-8 19 -15 37.5t-27 28.5q-3 2 -6 6t-6 9q-5 6 -2 12t13 6q26 1 52.5 -1t51 -10.5t44.5 -25.5t32 -47l13.5 -32t11.5 -32q5 -15 7 -30t6 -29h5zM397 600l-1 -1q0 -2 0.5 -2.5t0.5 -1.5v5zM391 627q0 4 1.5 6.5t-0.5 4.5
q-1 4 -3.5 6t-4.5 5q1 -4 1.5 -6.5t1.5 -5.5q1 -2 1.5 -5t2.5 -5zM384 652v-1v1zM141 87q-11 88 1 173q10 85 27 167t53 161q2 2 1.5 5.5t-0.5 6.5q-3 -2 -6.5 -4t-5.5 -5q-15 -24 -27 -51q-29 -72 -45 -146.5t-29 -150.5q-5 -34 -7 -68.5t-5 -69.5h2l4 -19.5l4 -18.5
q2 -5 5 -9t6 -9q5 5 9.5 7.5t6.5 7.5t4 11t2 12zM168 141q0 -5 2 -11l4 -12q5 5 9.5 8.5t7.5 8.5q48 80 74.5 165t37.5 176q3 24 3.5 48t1.5 48h-2q-1 14 -6 28q-1 5 -3.5 8t-4.5 7l-9 -4.5t-7 -5.5q-10 -16 -18.5 -32t-14.5 -33q-38 -97 -54 -196.5t-21 -202.5zM300 117
q38 65 60.5 134t36.5 141q8 44 11.5 86t-1.5 86q-2 -3 -5 -5.5t-3 -7.5q-1 -7 0.5 -14t1.5 -14q-7 -91 -33.5 -177t-69.5 -169q-19 -37 -41.5 -72t-48.5 -67q-3 -2 -4 -6t-3 -9h10t10 3l19.5 14t17.5 16l22 29t20 32zM358 857q-4 2 -9.5 3.5t-9.5 6.5l-33.5 38.5l-33.5 38.5
q-7 8 -6 12t12 7q12 4 21 5.5t16 0t13.5 -7.5t14.5 -16l22 -25.5l22 -24.5q12 -14 10 -22t-21 -13q-6 -2 -18 -3z" />
    <glyph glyph-name="Oacute" unicode="&#xd3;" 
d="M465 558q-4 -34 -5.5 -67.5t-7.5 -67.5q-16 -94 -46 -180.5t-87 -165.5q-11 -15 -24 -28.5l-27 -27.5q-29 -24 -63 -18q-19 5 -36.5 1t-34.5 -10q-86 -31 -119 53q-13 30 -13.5 61t1.5 63q5 88 22 171.5t49 166.5q20 56 51 103q12 19 22 30t22.5 15t29.5 3t44 -4
q6 -1 11.5 -2.5t11.5 -2.5q16 -5 20 -2t-1 17q-8 19 -15 37.5t-27 28.5q-3 2 -6 6t-6 9q-5 6 -2 12t13 6q26 1 52.5 -1t51 -10.5t44.5 -25.5t32 -47l13.5 -32t11.5 -32q5 -15 7 -30t6 -29h5zM397 600l-1 -1q0 -2 0.5 -2.5t0.5 -1.5v5zM391 627q0 4 1.5 6.5t-0.5 4.5
q-1 4 -3.5 6t-4.5 5q1 -4 1.5 -6.5t1.5 -5.5q1 -2 1.5 -5t2.5 -5zM384 652v-1v1zM141 87q-11 88 1 173q10 85 27 167t53 161q2 2 1.5 5.5t-0.5 6.5q-3 -2 -6.5 -4t-5.5 -5q-15 -24 -27 -51q-29 -72 -45 -146.5t-29 -150.5q-5 -34 -7 -68.5t-5 -69.5h2l4 -19.5l4 -18.5
q2 -5 5 -9t6 -9q5 5 9.5 7.5t6.5 7.5t4 11t2 12zM168 141q0 -5 2 -11l4 -12q5 5 9.5 8.5t7.5 8.5q48 80 74.5 165t37.5 176q3 24 3.5 48t1.5 48h-2q-1 14 -6 28q-1 5 -3.5 8t-4.5 7l-9 -4.5t-7 -5.5q-10 -16 -18.5 -32t-14.5 -33q-38 -97 -54 -196.5t-21 -202.5zM300 117
q38 65 60.5 134t36.5 141q8 44 11.5 86t-1.5 86q-2 -3 -5 -5.5t-3 -7.5q-1 -7 0.5 -14t1.5 -14q-7 -91 -33.5 -177t-69.5 -169q-19 -37 -41.5 -72t-48.5 -67q-3 -2 -4 -6t-3 -9h10t10 3l19.5 14t17.5 16l22 29t20 32zM316 857q-12 1 -18 3q-19 5 -21 13t10 22l22 24.5
l22 25.5q8 10 14.5 16t13.5 7.5t16 0t21 -5.5q11 -3 12 -7t-6 -12l-33.5 -38.5l-33.5 -38.5q-4 -5 -9.5 -6.5t-9.5 -3.5z" />
    <glyph glyph-name="Ocircumflex" unicode="&#xd4;" 
d="M465 558q-4 -34 -5.5 -67.5t-7.5 -67.5q-16 -94 -46 -180.5t-87 -165.5q-11 -15 -24 -28.5l-27 -27.5q-29 -24 -63 -18q-19 5 -36.5 1t-34.5 -10q-86 -31 -119 53q-13 30 -13.5 61t1.5 63q5 88 22 171.5t49 166.5q20 56 51 103q12 19 22 30t22.5 15t29.5 3t44 -4
q6 -1 11.5 -2.5t11.5 -2.5q16 -5 20 -2t-1 17q-8 19 -15 37.5t-27 28.5q-3 2 -6 6t-6 9q-5 6 -2 12t13 6q26 1 52.5 -1t51 -10.5t44.5 -25.5t32 -47l13.5 -32t11.5 -32q5 -15 7 -30t6 -29h5zM397 600l-1 -1q0 -2 0.5 -2.5t0.5 -1.5v5zM391 627q0 4 1.5 6.5t-0.5 4.5
q-1 4 -3.5 6t-4.5 5q1 -4 1.5 -6.5t1.5 -5.5q1 -2 1.5 -5t2.5 -5zM384 652v-1v1zM141 87q-11 88 1 173q10 85 27 167t53 161q2 2 1.5 5.5t-0.5 6.5q-3 -2 -6.5 -4t-5.5 -5q-15 -24 -27 -51q-29 -72 -45 -146.5t-29 -150.5q-5 -34 -7 -68.5t-5 -69.5h2l4 -19.5l4 -18.5
q2 -5 5 -9t6 -9q5 5 9.5 7.5t6.5 7.5t4 11t2 12zM168 141q0 -5 2 -11l4 -12q5 5 9.5 8.5t7.5 8.5q48 80 74.5 165t37.5 176q3 24 3.5 48t1.5 48h-2q-1 14 -6 28q-1 5 -3.5 8t-4.5 7l-9 -4.5t-7 -5.5q-10 -16 -18.5 -32t-14.5 -33q-38 -97 -54 -196.5t-21 -202.5zM300 117
q38 65 60.5 134t36.5 141q8 44 11.5 86t-1.5 86q-2 -3 -5 -5.5t-3 -7.5q-1 -7 0.5 -14t1.5 -14q-7 -91 -33.5 -177t-69.5 -169q-19 -37 -41.5 -72t-48.5 -67q-3 -2 -4 -6t-3 -9h10t10 3l19.5 14t17.5 16l22 29t20 32zM371 848q-3 2 -8 4t-10 7q-4 3 -7 7t-6 9
q-13 17 -17.5 18t-16.5 -15q-8 -11 -19.5 -13.5l-21.5 -4.5q-4 -1 -8.5 2t-6.5 6q-1 2 0 7t3 7l27.5 31.5t28.5 29.5q18 18 44 13t38 -29q7 -11 11.5 -23t9.5 -24q11 -18 -11 -25q-7 -2 -13.5 -3.5t-16.5 -3.5z" />
    <glyph glyph-name="Otilde" unicode="&#xd5;" 
d="M465 558q-4 -34 -5.5 -67.5t-7.5 -67.5q-16 -94 -46 -180.5t-87 -165.5q-11 -15 -24 -28.5l-27 -27.5q-29 -24 -63 -18q-19 5 -36.5 1t-34.5 -10q-86 -31 -119 53q-13 30 -13.5 61t1.5 63q5 88 22 171.5t49 166.5q20 56 51 103q12 19 22 30t22.5 15t29.5 3t44 -4
q6 -1 11.5 -2.5t11.5 -2.5q16 -5 20 -2t-1 17q-8 19 -15 37.5t-27 28.5q-3 2 -6 6t-6 9q-5 6 -2 12t13 6q26 1 52.5 -1t51 -10.5t44.5 -25.5t32 -47l13.5 -32t11.5 -32q5 -15 7 -30t6 -29h5zM397 600l-1 -1q0 -2 0.5 -2.5t0.5 -1.5v5zM391 627q0 4 1.5 6.5t-0.5 4.5
q-1 4 -3.5 6t-4.5 5q1 -4 1.5 -6.5t1.5 -5.5q1 -2 1.5 -5t2.5 -5zM384 652v-1v1zM141 87q-11 88 1 173q10 85 27 167t53 161q2 2 1.5 5.5t-0.5 6.5q-3 -2 -6.5 -4t-5.5 -5q-15 -24 -27 -51q-29 -72 -45 -146.5t-29 -150.5q-5 -34 -7 -68.5t-5 -69.5h2l4 -19.5l4 -18.5
q2 -5 5 -9t6 -9q5 5 9.5 7.5t6.5 7.5t4 11t2 12zM168 141q0 -5 2 -11l4 -12q5 5 9.5 8.5t7.5 8.5q48 80 74.5 165t37.5 176q3 24 3.5 48t1.5 48h-2q-1 14 -6 28q-1 5 -3.5 8t-4.5 7l-9 -4.5t-7 -5.5q-10 -16 -18.5 -32t-14.5 -33q-38 -97 -54 -196.5t-21 -202.5zM300 117
q38 65 60.5 134t36.5 141q8 44 11.5 86t-1.5 86q-2 -3 -5 -5.5t-3 -7.5q-1 -7 0.5 -14t1.5 -14q-7 -91 -33.5 -177t-69.5 -169q-19 -37 -41.5 -72t-48.5 -67q-3 -2 -4 -6t-3 -9h10t10 3l19.5 14t17.5 16l22 29t20 32zM362 881q-37 0 -58 22q-8 6 -14.5 7.5t-11.5 -7.5
q-7 -12 -17.5 -14t-21.5 -5q-2 -1 -6 0.5t-6 3.5t-1.5 6.5t2.5 7.5q7 15 21.5 25t32 13.5t34.5 0t30 -15.5q10 -9 16 -13.5t12 -5t12.5 3.5t18.5 12l12.5 8.5l13.5 9.5q4 2 8.5 5t9.5 4q8 2 14.5 0.5t14.5 -1.5q-4 -6 -7 -12.5t-8 -11.5q-22 -20 -46.5 -32t-54.5 -11z" />
    <glyph glyph-name="Odieresis" unicode="&#xd6;" 
d="M465 558q-4 -34 -5.5 -67.5t-7.5 -67.5q-16 -94 -46 -180.5t-87 -165.5q-11 -15 -24 -28.5l-27 -27.5q-29 -24 -63 -18q-19 5 -36.5 1t-34.5 -10q-86 -31 -119 53q-13 30 -13.5 61t1.5 63q5 88 22 171.5t49 166.5q20 56 51 103q12 19 22 30t22.5 15t29.5 3t44 -4
q6 -1 11.5 -2.5t11.5 -2.5q16 -5 20 -2t-1 17q-8 19 -15 37.5t-27 28.5q-3 2 -6 6t-6 9q-5 6 -2 12t13 6q26 1 52.5 -1t51 -10.5t44.5 -25.5t32 -47l13.5 -32t11.5 -32q5 -15 7 -30t6 -29h5zM397 600l-1 -1q0 -2 0.5 -2.5t0.5 -1.5v5zM391 627q0 4 1.5 6.5t-0.5 4.5
q-1 4 -3.5 6t-4.5 5q1 -4 1.5 -6.5t1.5 -5.5q1 -2 1.5 -5t2.5 -5zM384 652v-1v1zM141 87q-11 88 1 173q10 85 27 167t53 161q2 2 1.5 5.5t-0.5 6.5q-3 -2 -6.5 -4t-5.5 -5q-15 -24 -27 -51q-29 -72 -45 -146.5t-29 -150.5q-5 -34 -7 -68.5t-5 -69.5h2l4 -19.5l4 -18.5
q2 -5 5 -9t6 -9q5 5 9.5 7.5t6.5 7.5t4 11t2 12zM168 141q0 -5 2 -11l4 -12q5 5 9.5 8.5t7.5 8.5q48 80 74.5 165t37.5 176q3 24 3.5 48t1.5 48h-2q-1 14 -6 28q-1 5 -3.5 8t-4.5 7l-9 -4.5t-7 -5.5q-10 -16 -18.5 -32t-14.5 -33q-38 -97 -54 -196.5t-21 -202.5zM300 117
q38 65 60.5 134t36.5 141q8 44 11.5 86t-1.5 86q-2 -3 -5 -5.5t-3 -7.5q-1 -7 0.5 -14t1.5 -14q-7 -91 -33.5 -177t-69.5 -169q-19 -37 -41.5 -72t-48.5 -67q-3 -2 -4 -6t-3 -9h10t10 3l19.5 14t17.5 16l22 29t20 32zM299 932q41 0 43 -29q1 -11 -4.5 -19t-16.5 -11
q-15 -3 -30 -3q-31 1 -31 34q0 14 5 19t22 7q10 2 12 2zM405 932q41 0 43 -29q1 -11 -4.5 -19t-16.5 -11q-15 -3 -30 -3q-31 1 -31 34q0 14 5 19t22 7q10 2 12 2z" />
    <glyph glyph-name="Ugrave" unicode="&#xd9;" horiz-adv-x="550" 
d="M608 699q3 -5 3.5 -12t-0.5 -12q-4 -17 -9 -34l-10 -34q-40 -107 -65.5 -217l-50.5 -222q-8 -36 -11 -73t-8 -74q0 -2 -1 -6.5t-3 -5.5q-13 -5 -26 -9t-25 -4q-13 0 -20.5 9.5t-10.5 23.5q-2 13 -3.5 27t0.5 28l12 103.5l12 104.5v16q-7 -10 -8 -17q-5 -25 -9.5 -50.5
t-8.5 -50.5q-4 -22 -7 -43.5t-8 -43.5q0 -2 -2 -4t-3 -5q-2 3 -4.5 6t-2.5 5q2 36 4.5 72t4.5 72q1 8 2 14.5t2 14.5q0 3 -1.5 6.5t-3.5 5.5q-2 -2 -4.5 -4t-4.5 -5l-44.5 -86.5l-45.5 -86.5l-22 -35.5t-24 -34.5q-8 -13 -19 -21.5t-28 -8.5q-4 0 -7 -3.5t-7 -5.5
q-3 -1 -5.5 -3t-3.5 0l-27.5 15.5t-24.5 17.5q-14 10 -26 3v1q-12 -1 -19.5 -0.5t-12 3.5t-7.5 10t-6 19q-11 32 -10.5 64t3.5 64q9 91 28.5 179t53.5 173q7 17 15.5 33l16.5 32q4 7 9 11.5t14 -3.5q4 -2 9 0q13 10 24.5 10.5t22.5 -3t22 -10t22 -11.5q9 -5 7.5 -13
t-3.5 -16l-21 -61.5t-19 -61.5q-22 -76 -36 -152.5t-19 -155.5q0 -5 -0.5 -8t-0.5 -7q2 -9 6 -16q2 3 5.5 6.5t5.5 6.5l39.5 81.5l38.5 81.5q45 106 103.5 203.5l118.5 194.5l13.5 18.5t11.5 19.5q7 15 17.5 19.5t25.5 2.5q26 -4 42.5 -18.5zM100 447q1 4 1 8v8q0 2 -1 4
l-2 4q0 -2 -1 -4t1 -4q0 -4 0.5 -8t1.5 -9q-5 -7 -9.5 -12.5t-6.5 -12.5l-27 -142t-24 -143q-5 -26 -2 -53.5t23 -49.5q15 19 8 42q-2 9 -2.5 18.5t-1.5 20.5q-3 112 18 223q4 28 10.5 55zM115 524v4l-2 -2zM394 337l1 -2zM400 341q2 2 2 6q-2 -1 -5 -4q-2 -2 -2 -3t-1 -3
q5 2 6 4zM402 375l1 -2zM409 388q4 6 5 10q0 1 -1 1q1 0 1 -2q-2 -2 -2.5 -4.5t-2.5 -4.5zM373 857q-4 2 -9.5 3.5t-9.5 6.5l-33.5 38.5l-33.5 38.5q-7 8 -6 12t12 7q12 4 21 5.5t16 0t13.5 -7.5t14.5 -16l22 -25.5l22 -24.5q12 -14 10 -22t-21 -13q-6 -2 -18 -3z" />
    <glyph glyph-name="Uacute" unicode="&#xda;" horiz-adv-x="550" 
d="M608 699q3 -5 3.5 -12t-0.5 -12q-4 -17 -9 -34l-10 -34q-40 -107 -65.5 -217l-50.5 -222q-8 -36 -11 -73t-8 -74q0 -2 -1 -6.5t-3 -5.5q-13 -5 -26 -9t-25 -4q-13 0 -20.5 9.5t-10.5 23.5q-2 13 -3.5 27t0.5 28l12 103.5l12 104.5v16q-7 -10 -8 -17q-5 -25 -9.5 -50.5
t-8.5 -50.5q-4 -22 -7 -43.5t-8 -43.5q0 -2 -2 -4t-3 -5q-2 3 -4.5 6t-2.5 5q2 36 4.5 72t4.5 72q1 8 2 14.5t2 14.5q0 3 -1.5 6.5t-3.5 5.5q-2 -2 -4.5 -4t-4.5 -5l-44.5 -86.5l-45.5 -86.5l-22 -35.5t-24 -34.5q-8 -13 -19 -21.5t-28 -8.5q-4 0 -7 -3.5t-7 -5.5
q-3 -1 -5.5 -3t-3.5 0l-27.5 15.5t-24.5 17.5q-14 10 -26 3v1q-12 -1 -19.5 -0.5t-12 3.5t-7.5 10t-6 19q-11 32 -10.5 64t3.5 64q9 91 28.5 179t53.5 173q7 17 15.5 33l16.5 32q4 7 9 11.5t14 -3.5q4 -2 9 0q13 10 24.5 10.5t22.5 -3t22 -10t22 -11.5q9 -5 7.5 -13
t-3.5 -16l-21 -61.5t-19 -61.5q-22 -76 -36 -152.5t-19 -155.5q0 -5 -0.5 -8t-0.5 -7q2 -9 6 -16q2 3 5.5 6.5t5.5 6.5l39.5 81.5l38.5 81.5q45 106 103.5 203.5l118.5 194.5l13.5 18.5t11.5 19.5q7 15 17.5 19.5t25.5 2.5q26 -4 42.5 -18.5zM100 447q1 4 1 8v8q0 2 -1 4
l-2 4q0 -2 -1 -4t1 -4q0 -4 0.5 -8t1.5 -9q-5 -7 -9.5 -12.5t-6.5 -12.5l-27 -142t-24 -143q-5 -26 -2 -53.5t23 -49.5q15 19 8 42q-2 9 -2.5 18.5t-1.5 20.5q-3 112 18 223q4 28 10.5 55zM115 524v4l-2 -2zM394 337l1 -2zM400 341q2 2 2 6q-2 -1 -5 -4q-2 -2 -2 -3t-1 -3
q5 2 6 4zM402 375l1 -2zM409 388q4 6 5 10q0 1 -1 1q1 0 1 -2q-2 -2 -2.5 -4.5t-2.5 -4.5zM362 857q-12 1 -18 3q-19 5 -21 13t10 22l22 24.5l22 25.5q8 10 14.5 16t13.5 7.5t16 0t21 -5.5q11 -3 12 -7t-6 -12l-33.5 -38.5l-33.5 -38.5q-4 -5 -9.5 -6.5t-9.5 -3.5z" />
    <glyph glyph-name="Ucircumflex" unicode="&#xdb;" horiz-adv-x="550" 
d="M608 699q3 -5 3.5 -12t-0.5 -12q-4 -17 -9 -34l-10 -34q-40 -107 -65.5 -217l-50.5 -222q-8 -36 -11 -73t-8 -74q0 -2 -1 -6.5t-3 -5.5q-13 -5 -26 -9t-25 -4q-13 0 -20.5 9.5t-10.5 23.5q-2 13 -3.5 27t0.5 28l12 103.5l12 104.5v16q-7 -10 -8 -17q-5 -25 -9.5 -50.5
t-8.5 -50.5q-4 -22 -7 -43.5t-8 -43.5q0 -2 -2 -4t-3 -5q-2 3 -4.5 6t-2.5 5q2 36 4.5 72t4.5 72q1 8 2 14.5t2 14.5q0 3 -1.5 6.5t-3.5 5.5q-2 -2 -4.5 -4t-4.5 -5l-44.5 -86.5l-45.5 -86.5l-22 -35.5t-24 -34.5q-8 -13 -19 -21.5t-28 -8.5q-4 0 -7 -3.5t-7 -5.5
q-3 -1 -5.5 -3t-3.5 0l-27.5 15.5t-24.5 17.5q-14 10 -26 3v1q-12 -1 -19.5 -0.5t-12 3.5t-7.5 10t-6 19q-11 32 -10.5 64t3.5 64q9 91 28.5 179t53.5 173q7 17 15.5 33l16.5 32q4 7 9 11.5t14 -3.5q4 -2 9 0q13 10 24.5 10.5t22.5 -3t22 -10t22 -11.5q9 -5 7.5 -13
t-3.5 -16l-21 -61.5t-19 -61.5q-22 -76 -36 -152.5t-19 -155.5q0 -5 -0.5 -8t-0.5 -7q2 -9 6 -16q2 3 5.5 6.5t5.5 6.5l39.5 81.5l38.5 81.5q45 106 103.5 203.5l118.5 194.5l13.5 18.5t11.5 19.5q7 15 17.5 19.5t25.5 2.5q26 -4 42.5 -18.5zM100 447q1 4 1 8v8q0 2 -1 4
l-2 4q0 -2 -1 -4t1 -4q0 -4 0.5 -8t1.5 -9q-5 -7 -9.5 -12.5t-6.5 -12.5l-27 -142t-24 -143q-5 -26 -2 -53.5t23 -49.5q15 19 8 42q-2 9 -2.5 18.5t-1.5 20.5q-3 112 18 223q4 28 10.5 55zM115 524v4l-2 -2zM394 337l1 -2zM400 341q2 2 2 6q-2 -1 -5 -4q-2 -2 -2 -3t-1 -3
q5 2 6 4zM402 375l1 -2zM409 388q4 6 5 10q0 1 -1 1q1 0 1 -2q-2 -2 -2.5 -4.5t-2.5 -4.5zM430 848q-3 2 -8 4t-10 7q-4 3 -7 7t-6 9q-13 17 -17.5 18t-16.5 -15q-8 -11 -19.5 -13.5l-21.5 -4.5q-4 -1 -8.5 2t-6.5 6q-1 2 0 7t3 7l27.5 31.5t28.5 29.5q18 18 44 13t38 -29
q7 -11 11.5 -23t9.5 -24q11 -18 -11 -25q-7 -2 -13.5 -3.5t-16.5 -3.5z" />
    <glyph glyph-name="Udieresis" unicode="&#xdc;" horiz-adv-x="550" 
d="M608 699q3 -5 3.5 -12t-0.5 -12q-4 -17 -9 -34l-10 -34q-40 -107 -65.5 -217l-50.5 -222q-8 -36 -11 -73t-8 -74q0 -2 -1 -6.5t-3 -5.5q-13 -5 -26 -9t-25 -4q-13 0 -20.5 9.5t-10.5 23.5q-2 13 -3.5 27t0.5 28l12 103.5l12 104.5v16q-7 -10 -8 -17q-5 -25 -9.5 -50.5
t-8.5 -50.5q-4 -22 -7 -43.5t-8 -43.5q0 -2 -2 -4t-3 -5q-2 3 -4.5 6t-2.5 5q2 36 4.5 72t4.5 72q1 8 2 14.5t2 14.5q0 3 -1.5 6.5t-3.5 5.5q-2 -2 -4.5 -4t-4.5 -5l-44.5 -86.5l-45.5 -86.5l-22 -35.5t-24 -34.5q-8 -13 -19 -21.5t-28 -8.5q-4 0 -7 -3.5t-7 -5.5
q-3 -1 -5.5 -3t-3.5 0l-27.5 15.5t-24.5 17.5q-14 10 -26 3v1q-12 -1 -19.5 -0.5t-12 3.5t-7.5 10t-6 19q-11 32 -10.5 64t3.5 64q9 91 28.5 179t53.5 173q7 17 15.5 33l16.5 32q4 7 9 11.5t14 -3.5q4 -2 9 0q13 10 24.5 10.5t22.5 -3t22 -10t22 -11.5q9 -5 7.5 -13
t-3.5 -16l-21 -61.5t-19 -61.5q-22 -76 -36 -152.5t-19 -155.5q0 -5 -0.5 -8t-0.5 -7q2 -9 6 -16q2 3 5.5 6.5t5.5 6.5l39.5 81.5l38.5 81.5q45 106 103.5 203.5l118.5 194.5l13.5 18.5t11.5 19.5q7 15 17.5 19.5t25.5 2.5q26 -4 42.5 -18.5zM100 447q1 4 1 8v8q0 2 -1 4
l-2 4q0 -2 -1 -4t1 -4q0 -4 0.5 -8t1.5 -9q-5 -7 -9.5 -12.5t-6.5 -12.5l-27 -142t-24 -143q-5 -26 -2 -53.5t23 -49.5q15 19 8 42q-2 9 -2.5 18.5t-1.5 20.5q-3 112 18 223q4 28 10.5 55zM115 524v4l-2 -2zM394 337l1 -2zM400 341q2 2 2 6q-2 -1 -5 -4q-2 -2 -2 -3t-1 -3
q5 2 6 4zM402 375l1 -2zM409 388q4 6 5 10q0 1 -1 1q1 0 1 -2q-2 -2 -2.5 -4.5t-2.5 -4.5zM328 932q41 0 43 -29q1 -11 -4.5 -19t-16.5 -11q-15 -3 -30 -3q-31 1 -31 34q0 14 5 19t22 7q10 2 12 2zM434 932q41 0 43 -29q1 -11 -4.5 -19t-16.5 -11q-15 -3 -30 -3
q-31 1 -31 34q0 14 5 19t22 7q10 2 12 2z" />
    <glyph glyph-name="Yacute" unicode="&#xdd;" horiz-adv-x="337" 
d="M32 143l11 17l11 17v6q1 2 1 5.5t2 5.5q0 -2 -1 -5.5t-1 -5.5q-1 -2 -1 -6q-2 1 -5 1t-5.5 0.5t-3.5 1.5t1 6q7 17 14.5 33l15.5 33q1 2 4 3t5 3l-1 1q10 0 12.5 5t1.5 13q-9 62 -25 122t-34 120q-10 36 -16.5 73l-12.5 74q-3 17 2 22.5t22 7.5t20 -1.5t6 -20.5l17.5 -74
l17.5 -73q1 -4 3.5 -7t4.5 -7q1 5 1.5 8t-0.5 7q-5 29 -9 57t-9 56q-1 8 -1.5 16.5t-0.5 16.5q-1 2 0.5 3.5t2.5 3.5l4 -2t4 -3q2 -10 5 -19t5 -20q13 -46 24.5 -91t25.5 -92q3 -11 8.5 -20.5t10.5 -20.5q5 9 10.5 17.5l10.5 16.5l70.5 104.5l71.5 103.5q14 19 28.5 36
t30.5 34q9 9 15 14t12 6t13 -1.5t18 -8.5q15 -5 28 -20q13 -10 12 -14t-13 -18q-12 -15 -21.5 -31l-20.5 -33l-63.5 -95.5t-61.5 -97.5l-51.5 -89l-49.5 -89q-9 -17 -16 -33.5t-17 -32.5q-10 -17 -16.5 -34.5t-14.5 -34.5q-5 -9 -11 -24.5l-12.5 -33l-12 -33t-9.5 -24.5
q-3 -10 -5 -20t-6 -21q-2 -4 -5.5 -9t-6.5 -5q-18 2 -35.5 4.5t-34.5 8.5q-6 2 -9.5 13.5t-3.5 21.5q1 14 4.5 26.5t6.5 26.5q1 4 4.5 14t7 21.5t7 21.5t3.5 13q1 5 -1.5 9.5t-2.5 9.5q-1 2 1 5t3 6q0 -1 0.5 -2.5t0.5 -3.5q3 2 6 5h-1zM105 492q-4 -3 -4 -4q0 -4 2 -6h2
q1 0 2 1q-1 2 -1 4.5t-1 4.5zM69 223q-2 0 -2 -1q-3 0 -3 -2q2 0 3 0.5t2 0.5v2zM77 246q0 -3 -2 -4h5q-1 1 -1 4h-2zM99 334q0 -1 -0.5 -1t-0.5 -2v-2l2 2v1q0 1 -0.5 1t-0.5 1zM80 258q0 4 0.5 8t0.5 9q1 0 3 -2q1 -1 2 -1q-2 -3 -3.5 -6.5t-3.5 -6.5zM26 144l2 4t1 4l2 4
l2 4q0 -3 0.5 -5t0.5 -4q0 -4 -2 -8h1q-2 1 -7 1zM255 857q-12 1 -18 3q-19 5 -21 13t10 22l22 24.5l22 25.5q8 10 14.5 16t13.5 7.5t16 0t21 -5.5q11 -3 12 -7t-6 -12l-33.5 -38.5l-33.5 -38.5q-4 -5 -9.5 -6.5t-9.5 -3.5z" />
    <glyph glyph-name="Ydieresis" unicode="&#x178;" horiz-adv-x="337" 
d="M32 143l11 17l11 17v6q1 2 1 5.5t2 5.5q0 -2 -1 -5.5t-1 -5.5q-1 -2 -1 -6q-2 1 -5 1t-5.5 0.5t-3.5 1.5t1 6q7 17 14.5 33l15.5 33q1 2 4 3t5 3l-1 1q10 0 12.5 5t1.5 13q-9 62 -25 122t-34 120q-10 36 -16.5 73l-12.5 74q-3 17 2 22.5t22 7.5t20 -1.5t6 -20.5l17.5 -74
l17.5 -73q1 -4 3.5 -7t4.5 -7q1 5 1.5 8t-0.5 7q-5 29 -9 57t-9 56q-1 8 -1.5 16.5t-0.5 16.5q-1 2 0.5 3.5t2.5 3.5l4 -2t4 -3q2 -10 5 -19t5 -20q13 -46 24.5 -91t25.5 -92q3 -11 8.5 -20.5t10.5 -20.5q5 9 10.5 17.5l10.5 16.5l70.5 104.5l71.5 103.5q14 19 28.5 36
t30.5 34q9 9 15 14t12 6t13 -1.5t18 -8.5q15 -5 28 -20q13 -10 12 -14t-13 -18q-12 -15 -21.5 -31l-20.5 -33l-63.5 -95.5t-61.5 -97.5l-51.5 -89l-49.5 -89q-9 -17 -16 -33.5t-17 -32.5q-10 -17 -16.5 -34.5t-14.5 -34.5q-5 -9 -11 -24.5l-12.5 -33l-12 -33t-9.5 -24.5
q-3 -10 -5 -20t-6 -21q-2 -4 -5.5 -9t-6.5 -5q-18 2 -35.5 4.5t-34.5 8.5q-6 2 -9.5 13.5t-3.5 21.5q1 14 4.5 26.5t6.5 26.5q1 4 4.5 14t7 21.5t7 21.5t3.5 13q1 5 -1.5 9.5t-2.5 9.5q-1 2 1 5t3 6q0 -1 0.5 -2.5t0.5 -3.5q3 2 6 5h-1zM105 492q-4 -3 -4 -4q0 -4 2 -6h2
q1 0 2 1q-1 2 -1 4.5t-1 4.5zM69 223q-2 0 -2 -1q-3 0 -3 -2q2 0 3 0.5t2 0.5v2zM77 246q0 -3 -2 -4h5q-1 1 -1 4h-2zM99 334q0 -1 -0.5 -1t-0.5 -2v-2l2 2v1q0 1 -0.5 1t-0.5 1zM80 258q0 4 0.5 8t0.5 9q1 0 3 -2q1 -1 2 -1q-2 -3 -3.5 -6.5t-3.5 -6.5zM26 144l2 4t1 4l2 4
l2 4q0 -3 0.5 -5t0.5 -4q0 -4 -2 -8h1q-2 1 -7 1zM211 932q41 0 43 -29q1 -11 -4.5 -19t-16.5 -11q-15 -3 -30 -3q-31 1 -31 34q0 14 5 19t22 7q10 2 12 2zM317 932q41 0 43 -29q1 -11 -4.5 -19t-16.5 -11q-15 -3 -30 -3q-31 1 -31 34q0 14 5 19t22 7q10 2 12 2z" />
    <glyph glyph-name="eth" unicode="&#xf0;" horiz-adv-x="318" 
d="M-5 298q5 10 6 15q1 2 0.5 5t0.5 5q-4 -2 -7 -2.5t-7 -2.5l-7 -6l-4.5 -6.5t-7.5 -7.5l5.5 9.5t5.5 8.5q3 5 8 9l10 8q42 30 89 35.5t87 -14.5q2 -1 5.5 -2.5t6.5 -2.5l4 16q1 2 1 7q-2 20 -3.5 40.5t-3.5 40.5l-32.5 -6t-32.5 -5q-8 -2 -18.5 -1.5t-19.5 2.5
q-7 2 0 13.5t16 16.5q14 4 25.5 6.5t24.5 6.5l15.5 6t17.5 6q-2 19 -3.5 37.5t-3.5 38.5q1 5 -1 9t-4 9q-6 13 1.5 24t25.5 12q18 3 29 2.5t18 -5t11.5 -13t7.5 -22.5l-2 -7l4 -32.5l4 -32.5l8 2q3 1 8 -0.5t8 -3.5q4 -3 6 -7t5 -7q7 -16 0.5 -22t-29.5 -10
q8 -81 11.5 -161.5t7.5 -161.5q1 -23 0 -45t-5 -45q-5 -21 -23.5 -34.5t-41.5 -15.5q-27 -4 -44.5 5.5t-34.5 22.5q-42 34 -74.5 74t-56.5 88q-11 22 -18.5 47t1.5 54zM77 293q1 -11 1 -22.5t4 -22.5q5 -30 18 -55t31 -46q15 -20 31 -38.5t33 -35.5q3 -7 10 -10q5 -2 9 0
q1 1 2.5 3.5t0.5 4.5q-2 23 -2 47t-9 43q-20 42 -42 80.5t-57 68.5q-1 1 -6 4q-13 9 -19 -8q-2 -3 -2 -6t-1 -6q-1 0 -2 -1z" />
    <glyph glyph-name="agrave" unicode="&#xe0;" horiz-adv-x="416" 
d="M291 89l-2 29.5t-3 29.5q0 5 -3 13q-4 -2 -7 -4t-5 -6l-40 -49.5l-40 -51.5q-23 -29 -53.5 -38t-66.5 -7q-30 2 -46.5 19t-19.5 39q-11 60 0.5 117.5t45.5 110.5q22 31 54 46.5t69 18.5q25 2 50.5 0t49.5 -13q3 -3 7.5 -3.5t7.5 -1.5q14 -2 16 9q6 46 12.5 91l13.5 92
q2 25 -18 10l-52.5 -42t-51.5 -44q-16 -14 -30 -30.5l-28 -32.5q-12 -14 -33.5 -17t-35.5 9q-2 1 -3 5.5t0 6.5q2 7 6 11.5t8 8.5q13 16 26.5 30t25.5 30q17 18 32 37t32 36q40 42 97 58q16 5 30 0t28 -18q11 -10 22.5 -18.5t26.5 -10.5q17 -3 21 -9.5t-1 -24.5
q-7 -38 -16.5 -75.5t-15.5 -75.5l-15.5 -121t-14.5 -123q-2 -14 -2.5 -27t4.5 -27q4 -20 -3.5 -35t-9.5 -32q0 -5 -6 -6q-19 -11 -38 -1t-23 33q-1 14 -1.5 27t-2.5 27h2zM316 588q-3 -3 -4 -5v1q1 1 1.5 2t1.5 2q2 -1 4 -1.5t4 -1.5q-3 3 -2 3h-5zM125 103q3 2 5 3t4 3
l67 71.5l67 71.5q5 7 6 12q1 7 -4 15t-13.5 14t-18 8t-15.5 -2q-12 -6 -23.5 -13.5t-20.5 -18.5q-26 -34 -37.5 -74t-19.5 -82q0 -2 1 -4zM103 113l-3 9q-1 -2 -3 -10q0 -2 1 -3.5t1 -4.5q1 3 2 5zM99 87h1l-1 2v-2zM387 657q-4 2 -9.5 3.5t-9.5 6.5l-33.5 38.5l-33.5 38.5
q-7 8 -6 12t12 7q12 4 21 5.5t16 0t13.5 -7.5t14.5 -16l22 -25.5l22 -24.5q12 -14 10 -22t-21 -13q-6 -2 -18 -3z" />
    <glyph glyph-name="aacute" unicode="&#xe1;" horiz-adv-x="416" 
d="M291 89l-2 29.5t-3 29.5q0 5 -3 13q-4 -2 -7 -4t-5 -6l-40 -49.5l-40 -51.5q-23 -29 -53.5 -38t-66.5 -7q-30 2 -46.5 19t-19.5 39q-11 60 0.5 117.5t45.5 110.5q22 31 54 46.5t69 18.5q25 2 50.5 0t49.5 -13q3 -3 7.5 -3.5t7.5 -1.5q14 -2 16 9q6 46 12.5 91l13.5 92
q2 25 -18 10l-52.5 -42t-51.5 -44q-16 -14 -30 -30.5l-28 -32.5q-12 -14 -33.5 -17t-35.5 9q-2 1 -3 5.5t0 6.5q2 7 6 11.5t8 8.5q13 16 26.5 30t25.5 30q17 18 32 37t32 36q40 42 97 58q16 5 30 0t28 -18q11 -10 22.5 -18.5t26.5 -10.5q17 -3 21 -9.5t-1 -24.5
q-7 -38 -16.5 -75.5t-15.5 -75.5l-15.5 -121t-14.5 -123q-2 -14 -2.5 -27t4.5 -27q4 -20 -3.5 -35t-9.5 -32q0 -5 -6 -6q-19 -11 -38 -1t-23 33q-1 14 -1.5 27t-2.5 27h2zM316 588q-3 -3 -4 -5v1q1 1 1.5 2t1.5 2q2 -1 4 -1.5t4 -1.5q-3 3 -2 3h-5zM125 103q3 2 5 3t4 3
l67 71.5l67 71.5q5 7 6 12q1 7 -4 15t-13.5 14t-18 8t-15.5 -2q-12 -6 -23.5 -13.5t-20.5 -18.5q-26 -34 -37.5 -74t-19.5 -82q0 -2 1 -4zM103 113l-3 9q-1 -2 -3 -10q0 -2 1 -3.5t1 -4.5q1 3 2 5zM99 87h1l-1 2v-2zM332 657q-12 1 -18 3q-19 5 -21 13t10 22l22 24.5
l22 25.5q8 10 14.5 16t13.5 7.5t16 0t21 -5.5q11 -3 12 -7t-6 -12l-33.5 -38.5l-33.5 -38.5q-4 -5 -9.5 -6.5t-9.5 -3.5z" />
    <glyph glyph-name="acircumflex" unicode="&#xe2;" horiz-adv-x="416" 
d="M291 89l-2 29.5t-3 29.5q0 5 -3 13q-4 -2 -7 -4t-5 -6l-40 -49.5l-40 -51.5q-23 -29 -53.5 -38t-66.5 -7q-30 2 -46.5 19t-19.5 39q-11 60 0.5 117.5t45.5 110.5q22 31 54 46.5t69 18.5q25 2 50.5 0t49.5 -13q3 -3 7.5 -3.5t7.5 -1.5q14 -2 16 9q6 46 12.5 91l13.5 92
q2 25 -18 10l-52.5 -42t-51.5 -44q-16 -14 -30 -30.5l-28 -32.5q-12 -14 -33.5 -17t-35.5 9q-2 1 -3 5.5t0 6.5q2 7 6 11.5t8 8.5q13 16 26.5 30t25.5 30q17 18 32 37t32 36q40 42 97 58q16 5 30 0t28 -18q11 -10 22.5 -18.5t26.5 -10.5q17 -3 21 -9.5t-1 -24.5
q-7 -38 -16.5 -75.5t-15.5 -75.5l-15.5 -121t-14.5 -123q-2 -14 -2.5 -27t4.5 -27q4 -20 -3.5 -35t-9.5 -32q0 -5 -6 -6q-19 -11 -38 -1t-23 33q-1 14 -1.5 27t-2.5 27h2zM316 588q-3 -3 -4 -5v1q1 1 1.5 2t1.5 2q2 -1 4 -1.5t4 -1.5q-3 3 -2 3h-5zM125 103q3 2 5 3t4 3
l67 71.5l67 71.5q5 7 6 12q1 7 -4 15t-13.5 14t-18 8t-15.5 -2q-12 -6 -23.5 -13.5t-20.5 -18.5q-26 -34 -37.5 -74t-19.5 -82q0 -2 1 -4zM103 113l-3 9q-1 -2 -3 -10q0 -2 1 -3.5t1 -4.5q1 3 2 5zM99 87h1l-1 2v-2zM409 648q-3 2 -8 4t-10 7q-4 3 -7 7t-6 9
q-13 17 -17.5 18t-16.5 -15q-8 -11 -19.5 -13.5l-21.5 -4.5q-4 -1 -8.5 2t-6.5 6q-1 2 0 7t3 7l27.5 31.5t28.5 29.5q18 18 44 13t38 -29q7 -11 11.5 -23t9.5 -24q11 -18 -11 -25q-7 -2 -13.5 -3.5t-16.5 -3.5z" />
    <glyph glyph-name="atilde" unicode="&#xe3;" horiz-adv-x="416" 
d="M291 89l-2 29.5t-3 29.5q0 5 -3 13q-4 -2 -7 -4t-5 -6l-40 -49.5l-40 -51.5q-23 -29 -53.5 -38t-66.5 -7q-30 2 -46.5 19t-19.5 39q-11 60 0.5 117.5t45.5 110.5q22 31 54 46.5t69 18.5q25 2 50.5 0t49.5 -13q3 -3 7.5 -3.5t7.5 -1.5q14 -2 16 9q6 46 12.5 91l13.5 92
q2 25 -18 10l-52.5 -42t-51.5 -44q-16 -14 -30 -30.5l-28 -32.5q-12 -14 -33.5 -17t-35.5 9q-2 1 -3 5.5t0 6.5q2 7 6 11.5t8 8.5q13 16 26.5 30t25.5 30q17 18 32 37t32 36q40 42 97 58q16 5 30 0t28 -18q11 -10 22.5 -18.5t26.5 -10.5q17 -3 21 -9.5t-1 -24.5
q-7 -38 -16.5 -75.5t-15.5 -75.5l-15.5 -121t-14.5 -123q-2 -14 -2.5 -27t4.5 -27q4 -20 -3.5 -35t-9.5 -32q0 -5 -6 -6q-19 -11 -38 -1t-23 33q-1 14 -1.5 27t-2.5 27h2zM316 588q-3 -3 -4 -5v1q1 1 1.5 2t1.5 2q2 -1 4 -1.5t4 -1.5q-3 3 -2 3h-5zM125 103q3 2 5 3t4 3
l67 71.5l67 71.5q5 7 6 12q1 7 -4 15t-13.5 14t-18 8t-15.5 -2q-12 -6 -23.5 -13.5t-20.5 -18.5q-26 -34 -37.5 -74t-19.5 -82q0 -2 1 -4zM103 113l-3 9q-1 -2 -3 -10q0 -2 1 -3.5t1 -4.5q1 3 2 5zM99 87h1l-1 2v-2zM417 681q-37 0 -58 22q-8 6 -14.5 7.5t-11.5 -7.5
q-7 -12 -17.5 -14t-21.5 -5q-2 -1 -6 0.5t-6 3.5t-1.5 6.5t2.5 7.5q7 15 21.5 25t32 13.5t34.5 0t30 -15.5q10 -9 16 -13.5t12 -5t12.5 3.5t18.5 12l12.5 8.5l13.5 9.5q4 2 8.5 5t9.5 4q8 2 14.5 0.5t14.5 -1.5q-4 -6 -7 -12.5t-8 -11.5q-22 -20 -46.5 -32t-54.5 -11z" />
    <glyph glyph-name="adieresis" unicode="&#xe4;" horiz-adv-x="416" 
d="M291 89l-2 29.5t-3 29.5q0 5 -3 13q-4 -2 -7 -4t-5 -6l-40 -49.5l-40 -51.5q-23 -29 -53.5 -38t-66.5 -7q-30 2 -46.5 19t-19.5 39q-11 60 0.5 117.5t45.5 110.5q22 31 54 46.5t69 18.5q25 2 50.5 0t49.5 -13q3 -3 7.5 -3.5t7.5 -1.5q14 -2 16 9q6 46 12.5 91l13.5 92
q2 25 -18 10l-52.5 -42t-51.5 -44q-16 -14 -30 -30.5l-28 -32.5q-12 -14 -33.5 -17t-35.5 9q-2 1 -3 5.5t0 6.5q2 7 6 11.5t8 8.5q13 16 26.5 30t25.5 30q17 18 32 37t32 36q40 42 97 58q16 5 30 0t28 -18q11 -10 22.5 -18.5t26.5 -10.5q17 -3 21 -9.5t-1 -24.5
q-7 -38 -16.5 -75.5t-15.5 -75.5l-15.5 -121t-14.5 -123q-2 -14 -2.5 -27t4.5 -27q4 -20 -3.5 -35t-9.5 -32q0 -5 -6 -6q-19 -11 -38 -1t-23 33q-1 14 -1.5 27t-2.5 27h2zM316 588q-3 -3 -4 -5v1q1 1 1.5 2t1.5 2q2 -1 4 -1.5t4 -1.5q-3 3 -2 3h-5zM125 103q3 2 5 3t4 3
l67 71.5l67 71.5q5 7 6 12q1 7 -4 15t-13.5 14t-18 8t-15.5 -2q-12 -6 -23.5 -13.5t-20.5 -18.5q-26 -34 -37.5 -74t-19.5 -82q0 -2 1 -4zM103 113l-3 9q-1 -2 -3 -10q0 -2 1 -3.5t1 -4.5q1 3 2 5zM99 87h1l-1 2v-2zM314 732q41 0 43 -29q1 -11 -4.5 -19t-16.5 -11
q-15 -3 -30 -3q-31 1 -31 34q0 14 5 19t22 7q10 2 12 2zM420 732q41 0 43 -29q1 -11 -4.5 -19t-16.5 -11q-15 -3 -30 -3q-31 1 -31 34q0 14 5 19t22 7q10 2 12 2z" />
    <glyph glyph-name="aring" unicode="&#xe5;" horiz-adv-x="416" 
d="M291 89l-2 29.5t-3 29.5q0 5 -3 13q-4 -2 -7 -4t-5 -6l-40 -49.5l-40 -51.5q-23 -29 -53.5 -38t-66.5 -7q-30 2 -46.5 19t-19.5 39q-11 60 0.5 117.5t45.5 110.5q22 31 54 46.5t69 18.5q25 2 50.5 0t49.5 -13q3 -3 7.5 -3.5t7.5 -1.5q14 -2 16 9q6 46 12.5 91l13.5 92
q2 25 -18 10l-52.5 -42t-51.5 -44q-16 -14 -30 -30.5l-28 -32.5q-12 -14 -33.5 -17t-35.5 9q-2 1 -3 5.5t0 6.5q2 7 6 11.5t8 8.5q13 16 26.5 30t25.5 30q17 18 32 37t32 36q40 42 97 58q16 5 30 0t28 -18q11 -10 22.5 -18.5t26.5 -10.5q17 -3 21 -9.5t-1 -24.5
q-7 -38 -16.5 -75.5t-15.5 -75.5l-15.5 -121t-14.5 -123q-2 -14 -2.5 -27t4.5 -27q4 -20 -3.5 -35t-9.5 -32q0 -5 -6 -6q-19 -11 -38 -1t-23 33q-1 14 -1.5 27t-2.5 27h2zM316 588q-3 -3 -4 -5v1q1 1 1.5 2t1.5 2q2 -1 4 -1.5t4 -1.5q-3 3 -2 3h-5zM125 103q3 2 5 3t4 3
l67 71.5l67 71.5q5 7 6 12q1 7 -4 15t-13.5 14t-18 8t-15.5 -2q-12 -6 -23.5 -13.5t-20.5 -18.5q-26 -34 -37.5 -74t-19.5 -82q0 -2 1 -4zM103 113l-3 9q-1 -2 -3 -10q0 -2 1 -3.5t1 -4.5q1 3 2 5zM99 87h1l-1 2v-2zM401 638q-25 0 -40.5 13.5t-17.5 34.5q-2 18 5 34t19 29
q4 5 9.5 7.5t8.5 1.5q16 -7 30.5 -12.5t25.5 -19.5t9 -28t-9 -28q-13 -30 -40 -32zM396 688q1 -4 1 -10t2 -13q1 -2 5 -3.5t6 -0.5q5 3 8.5 10.5t4.5 16.5t-0.5 17.5t-6.5 13.5q-2 2 -5.5 4t-4.5 1q-6 -3 -8 -11q-2 -5 -1.5 -11t-0.5 -14z" />
    <glyph glyph-name="egrave" unicode="&#xe8;" horiz-adv-x="397" 
d="M373 464q4 -5 6 -11.5t5 -11.5q-6 2 -11.5 3l-11.5 2q-3 1 -7 3.5t-7 0.5q-10 -4 -18.5 -1t-16.5 9q-16 10 -27 0l-27.5 -22.5t-22.5 -24.5q-17 -27 -32.5 -55.5l-31.5 -57.5v-10q8 -4 15 -4q25 1 47.5 2.5t46.5 2.5q2 1 6.5 0t6.5 -4q3 -2 6 -6.5t2 -8.5q0 -4 -3.5 -7
t-7.5 -4l-91 -6q-6 -1 -12.5 -1h-12.5q-15 -1 -25 -7t-13 -22q-4 -14 -9.5 -28t-6.5 -28q-2 -32 -0.5 -54t4.5 -36t7 -21.5t8 -11.5q5 1 15 5q45 15 85.5 36t77.5 50l13 10q3 1 9 1t11.5 -1t9.5 -3t4 -4q-1 -5 -4 -9.5t-7 -8.5q-37 -34 -78.5 -61t-90.5 -46q-29 -11 -64 -9
q-64 3 -92 63q-8 18 -14.5 37.5t-14.5 38.5q2 26 1.5 52t2.5 49q7 56 23 105.5t42 96.5q11 20 24.5 37t29.5 32q32 29 70.5 34t83.5 -19q22 -11 43 -25l41 -28q4 -2 7.5 -6t5.5 -7zM135 311l15.5 52.5l15.5 53.5q-20 -28 -32 -59.5t-22 -64.5q-1 -2 1 -4.5t3 -4.5
q2 0 5.5 0.5t3.5 2.5q4 6 6 12zM83 101q1 -8 1.5 -14.5t2.5 -11.5l17 168q-3 0 -5 -2t-4 -11q-6 -32 -11 -64t-1 -65zM148 37h-1h1zM115 244q1 -1 1 0h-1zM223 657q-4 2 -9.5 3.5t-9.5 6.5l-33.5 38.5l-33.5 38.5q-7 8 -6 12t12 7q12 4 21 5.5t16 0t13.5 -7.5t14.5 -16
l22 -25.5l22 -24.5q12 -14 10 -22t-21 -13q-6 -2 -18 -3z" />
    <glyph glyph-name="eacute" unicode="&#xe9;" horiz-adv-x="397" 
d="M373 464q4 -5 6 -11.5t5 -11.5q-6 2 -11.5 3l-11.5 2q-3 1 -7 3.5t-7 0.5q-10 -4 -18.5 -1t-16.5 9q-16 10 -27 0l-27.5 -22.5t-22.5 -24.5q-17 -27 -32.5 -55.5l-31.5 -57.5v-10q8 -4 15 -4q25 1 47.5 2.5t46.5 2.5q2 1 6.5 0t6.5 -4q3 -2 6 -6.5t2 -8.5q0 -4 -3.5 -7
t-7.5 -4l-91 -6q-6 -1 -12.5 -1h-12.5q-15 -1 -25 -7t-13 -22q-4 -14 -9.5 -28t-6.5 -28q-2 -32 -0.5 -54t4.5 -36t7 -21.5t8 -11.5q5 1 15 5q45 15 85.5 36t77.5 50l13 10q3 1 9 1t11.5 -1t9.5 -3t4 -4q-1 -5 -4 -9.5t-7 -8.5q-37 -34 -78.5 -61t-90.5 -46q-29 -11 -64 -9
q-64 3 -92 63q-8 18 -14.5 37.5t-14.5 38.5q2 26 1.5 52t2.5 49q7 56 23 105.5t42 96.5q11 20 24.5 37t29.5 32q32 29 70.5 34t83.5 -19q22 -11 43 -25l41 -28q4 -2 7.5 -6t5.5 -7zM135 311l15.5 52.5l15.5 53.5q-20 -28 -32 -59.5t-22 -64.5q-1 -2 1 -4.5t3 -4.5
q2 0 5.5 0.5t3.5 2.5q4 6 6 12zM83 101q1 -8 1.5 -14.5t2.5 -11.5l17 168q-3 0 -5 -2t-4 -11q-6 -32 -11 -64t-1 -65zM148 37h-1h1zM115 244q1 -1 1 0h-1zM216 657q-12 1 -18 3q-19 5 -21 13t10 22l22 24.5l22 25.5q8 10 14.5 16t13.5 7.5t16 0t21 -5.5q11 -3 12 -7t-6 -12
l-33.5 -38.5l-33.5 -38.5q-4 -5 -9.5 -6.5t-9.5 -3.5z" />
    <glyph glyph-name="ecircumflex" unicode="&#xea;" horiz-adv-x="397" 
d="M373 464q4 -5 6 -11.5t5 -11.5q-6 2 -11.5 3l-11.5 2q-3 1 -7 3.5t-7 0.5q-10 -4 -18.5 -1t-16.5 9q-16 10 -27 0l-27.5 -22.5t-22.5 -24.5q-17 -27 -32.5 -55.5l-31.5 -57.5v-10q8 -4 15 -4q25 1 47.5 2.5t46.5 2.5q2 1 6.5 0t6.5 -4q3 -2 6 -6.5t2 -8.5q0 -4 -3.5 -7
t-7.5 -4l-91 -6q-6 -1 -12.5 -1h-12.5q-15 -1 -25 -7t-13 -22q-4 -14 -9.5 -28t-6.5 -28q-2 -32 -0.5 -54t4.5 -36t7 -21.5t8 -11.5q5 1 15 5q45 15 85.5 36t77.5 50l13 10q3 1 9 1t11.5 -1t9.5 -3t4 -4q-1 -5 -4 -9.5t-7 -8.5q-37 -34 -78.5 -61t-90.5 -46q-29 -11 -64 -9
q-64 3 -92 63q-8 18 -14.5 37.5t-14.5 38.5q2 26 1.5 52t2.5 49q7 56 23 105.5t42 96.5q11 20 24.5 37t29.5 32q32 29 70.5 34t83.5 -19q22 -11 43 -25l41 -28q4 -2 7.5 -6t5.5 -7zM135 311l15.5 52.5l15.5 53.5q-20 -28 -32 -59.5t-22 -64.5q-1 -2 1 -4.5t3 -4.5
q2 0 5.5 0.5t3.5 2.5q4 6 6 12zM83 101q1 -8 1.5 -14.5t2.5 -11.5l17 168q-3 0 -5 -2t-4 -11q-6 -32 -11 -64t-1 -65zM148 37h-1h1zM115 244q1 -1 1 0h-1zM272 648q-3 2 -8 4t-10 7q-4 3 -7 7t-6 9q-13 17 -17.5 18t-16.5 -15q-8 -11 -19.5 -13.5l-21.5 -4.5q-4 -1 -8.5 2
t-6.5 6q-1 2 0 7t3 7l27.5 31.5t28.5 29.5q18 18 44 13t38 -29q7 -11 11.5 -23t9.5 -24q11 -18 -11 -25q-7 -2 -13.5 -3.5t-16.5 -3.5z" />
    <glyph glyph-name="edieresis" unicode="&#xeb;" horiz-adv-x="397" 
d="M373 464q4 -5 6 -11.5t5 -11.5q-6 2 -11.5 3l-11.5 2q-3 1 -7 3.5t-7 0.5q-10 -4 -18.5 -1t-16.5 9q-16 10 -27 0l-27.5 -22.5t-22.5 -24.5q-17 -27 -32.5 -55.5l-31.5 -57.5v-10q8 -4 15 -4q25 1 47.5 2.5t46.5 2.5q2 1 6.5 0t6.5 -4q3 -2 6 -6.5t2 -8.5q0 -4 -3.5 -7
t-7.5 -4l-91 -6q-6 -1 -12.5 -1h-12.5q-15 -1 -25 -7t-13 -22q-4 -14 -9.5 -28t-6.5 -28q-2 -32 -0.5 -54t4.5 -36t7 -21.5t8 -11.5q5 1 15 5q45 15 85.5 36t77.5 50l13 10q3 1 9 1t11.5 -1t9.5 -3t4 -4q-1 -5 -4 -9.5t-7 -8.5q-37 -34 -78.5 -61t-90.5 -46q-29 -11 -64 -9
q-64 3 -92 63q-8 18 -14.5 37.5t-14.5 38.5q2 26 1.5 52t2.5 49q7 56 23 105.5t42 96.5q11 20 24.5 37t29.5 32q32 29 70.5 34t83.5 -19q22 -11 43 -25l41 -28q4 -2 7.5 -6t5.5 -7zM135 311l15.5 52.5l15.5 53.5q-20 -28 -32 -59.5t-22 -64.5q-1 -2 1 -4.5t3 -4.5
q2 0 5.5 0.5t3.5 2.5q4 6 6 12zM83 101q1 -8 1.5 -14.5t2.5 -11.5l17 168q-3 0 -5 -2t-4 -11q-6 -32 -11 -64t-1 -65zM148 37h-1h1zM115 244q1 -1 1 0h-1zM200 732q41 0 43 -29q1 -11 -4.5 -19t-16.5 -11q-15 -3 -30 -3q-31 1 -31 34q0 14 5 19t22 7q10 2 12 2zM306 732
q41 0 43 -29q1 -11 -4.5 -19t-16.5 -11q-15 -3 -30 -3q-31 1 -31 34q0 14 5 19t22 7q10 2 12 2z" />
    <glyph glyph-name="igrave" unicode="&#xec;" horiz-adv-x="160" 
d="M151 529q28 -2 32 -6t-1 -21q-28 -93 -47 -185.5t-34 -185.5q-1 -8 -2.5 -15t-10.5 -15q-5 -3 -6 -8l-2 -10q-1 -19 -1 -36.5t-1 -36.5q0 -5 2.5 -10.5t-10.5 -7.5q-5 -2 -12.5 -1.5t-14.5 1.5t-12.5 3.5t-6.5 5.5q-5 11 -7 21t-6 21q2 75 10.5 149.5t18.5 149.5
q6 42 14.5 83t22.5 82q3 7 5.5 11t6 6.5t10 3t18.5 1.5q17 2 34 0zM10 293q-1 -3 -3.5 -5t-4.5 -4q-2 3 -3 5t-3 7l14 56t15 58q9 27 21 54q0 2 3.5 4.5t5.5 4.5q0 -2 1 -5t-1 -5l-17.5 -70l-17.5 -70q-2 -8 -5 -15.5t-5 -14.5zM184 657q-4 2 -9.5 3.5t-9.5 6.5l-33.5 38.5
l-33.5 38.5q-7 8 -6 12t12 7q12 4 21 5.5t16 0t13.5 -7.5t14.5 -16l22 -25.5l22 -24.5q12 -14 10 -22t-21 -13q-6 -2 -18 -3z" />
    <glyph glyph-name="iacute" unicode="&#xed;" horiz-adv-x="160" 
d="M151 529q28 -2 32 -6t-1 -21q-28 -93 -47 -185.5t-34 -185.5q-1 -8 -2.5 -15t-10.5 -15q-5 -3 -6 -8l-2 -10q-1 -19 -1 -36.5t-1 -36.5q0 -5 2.5 -10.5t-10.5 -7.5q-5 -2 -12.5 -1.5t-14.5 1.5t-12.5 3.5t-6.5 5.5q-5 11 -7 21t-6 21q2 75 10.5 149.5t18.5 149.5
q6 42 14.5 83t22.5 82q3 7 5.5 11t6 6.5t10 3t18.5 1.5q17 2 34 0zM10 293q-1 -3 -3.5 -5t-4.5 -4q-2 3 -3 5t-3 7l14 56t15 58q9 27 21 54q0 2 3.5 4.5t5.5 4.5q0 -2 1 -5t-1 -5l-17.5 -70l-17.5 -70q-2 -8 -5 -15.5t-5 -14.5zM131 657q-12 1 -18 3q-19 5 -21 13t10 22
l22 24.5l22 25.5q8 10 14.5 16t13.5 7.5t16 0t21 -5.5q11 -3 12 -7t-6 -12l-33.5 -38.5l-33.5 -38.5q-4 -5 -9.5 -6.5t-9.5 -3.5z" />
    <glyph glyph-name="icircumflex" unicode="&#xee;" horiz-adv-x="160" 
d="M151 529q28 -2 32 -6t-1 -21q-28 -93 -47 -185.5t-34 -185.5q-1 -8 -2.5 -15t-10.5 -15q-5 -3 -6 -8l-2 -10q-1 -19 -1 -36.5t-1 -36.5q0 -5 2.5 -10.5t-10.5 -7.5q-5 -2 -12.5 -1.5t-14.5 1.5t-12.5 3.5t-6.5 5.5q-5 11 -7 21t-6 21q2 75 10.5 149.5t18.5 149.5
q6 42 14.5 83t22.5 82q3 7 5.5 11t6 6.5t10 3t18.5 1.5q17 2 34 0zM10 293q-1 -3 -3.5 -5t-4.5 -4q-2 3 -3 5t-3 7l14 56t15 58q9 27 21 54q0 2 3.5 4.5t5.5 4.5q0 -2 1 -5t-1 -5l-17.5 -70l-17.5 -70q-2 -8 -5 -15.5t-5 -14.5zM188 648q-3 2 -8 4t-10 7q-4 3 -7 7t-6 9
q-13 17 -17.5 18t-16.5 -15q-8 -11 -19.5 -13.5l-21.5 -4.5q-4 -1 -8.5 2t-6.5 6q-1 2 0 7t3 7l27.5 31.5t28.5 29.5q18 18 44 13t38 -29q7 -11 11.5 -23t9.5 -24q11 -18 -11 -25q-7 -2 -13.5 -3.5t-16.5 -3.5z" />
    <glyph glyph-name="idieresis" unicode="&#xef;" horiz-adv-x="160" 
d="M151 529q28 -2 32 -6t-1 -21q-28 -93 -47 -185.5t-34 -185.5q-1 -8 -2.5 -15t-10.5 -15q-5 -3 -6 -8l-2 -10q-1 -19 -1 -36.5t-1 -36.5q0 -5 2.5 -10.5t-10.5 -7.5q-5 -2 -12.5 -1.5t-14.5 1.5t-12.5 3.5t-6.5 5.5q-5 11 -7 21t-6 21q2 75 10.5 149.5t18.5 149.5
q6 42 14.5 83t22.5 82q3 7 5.5 11t6 6.5t10 3t18.5 1.5q17 2 34 0zM10 293q-1 -3 -3.5 -5t-4.5 -4q-2 3 -3 5t-3 7l14 56t15 58q9 27 21 54q0 2 3.5 4.5t5.5 4.5q0 -2 1 -5t-1 -5l-17.5 -70l-17.5 -70q-2 -8 -5 -15.5t-5 -14.5zM88 732q41 0 43 -29q1 -11 -4.5 -19
t-16.5 -11q-15 -3 -30 -3q-31 1 -31 34q0 14 5 19t22 7q10 2 12 2zM194 732q41 0 43 -29q1 -11 -4.5 -19t-16.5 -11q-15 -3 -30 -3q-31 1 -31 34q0 14 5 19t22 7q10 2 12 2z" />
    <glyph glyph-name="ntilde" unicode="&#xf1;" horiz-adv-x="414" 
d="M22 220q13 83 23.5 165.5t30.5 163.5q2 8 4.5 14.5t4.5 14.5q9 24 20 28.5t34 -9.5q5 -2 9 -13q1 -1 -0.5 -2.5t-0.5 -2.5q10 -11 11.5 -22t-1 -22t-7 -22t-5.5 -22q-4 -23 -10.5 -46.5t-12.5 -47.5q-2 -5 -3 -11.5t-3 -12.5q-13 -35 -17.5 -72t-9.5 -74q-1 -6 1 -16
q2 3 4.5 5t4.5 6l51.5 84.5t48.5 86.5q17 34 37.5 63t46.5 53q23 21 48 38.5t48 36.5q9 8 18.5 7t19.5 -3q11 -2 17.5 -6.5t4.5 -17.5q0 -2 4 -4.5t6 -5.5t4 -7t1 -8q-7 -24 -13 -48.5t-14 -47.5q-15 -45 -26 -85.5t-18.5 -80.5t-11.5 -81t-6 -88q-1 -12 -0.5 -24t1.5 -23
q4 -12 -0.5 -16.5t-15.5 -4.5h-3q-38 -4 -52.5 8t-12.5 52q0 11 0.5 16.5t1.5 10t3.5 9.5t6.5 16l1 -1l10 54.5t8 53.5q7 47 10.5 93t15.5 92q1 5 0 9t-1 9h2l-1 -1l-23.5 -21t-22.5 -22q-117 -129 -184 -290l-8 -21t-9.5 -27l-8.5 -27.5t-6 -21.5q-2 -5 -3.5 -11.5
t1.5 -9.5q7 -9 7 -14t-4 -8t-9.5 -4.5t-9.5 -4.5q-4 -2 -7.5 -3t-7.5 -3q-35 -10 -49.5 1t-12.5 46q1 15 4.5 35l7 41.5t7.5 41.5l7 34q2 12 5.5 24t8.5 24l-2 1h1l1 -1v0zM306 681q-37 0 -58 22q-8 6 -14.5 7.5t-11.5 -7.5q-7 -12 -17.5 -14t-21.5 -5q-2 -1 -6 0.5t-6 3.5
t-1.5 6.5t2.5 7.5q7 15 21.5 25t32 13.5t34.5 0t30 -15.5q10 -9 16 -13.5t12 -5t12.5 3.5t18.5 12l12.5 8.5l13.5 9.5q4 2 8.5 5t9.5 4q8 2 14.5 0.5t14.5 -1.5q-4 -6 -7 -12.5t-8 -11.5q-22 -20 -46.5 -32t-54.5 -11z" />
    <glyph glyph-name="ograve" unicode="&#xf2;" horiz-adv-x="367" 
d="M50 310l-5.5 -5.5t-4.5 -7.5q-21 -76 -8 -156q3 -11 4.5 -22.5t2.5 -22.5l1 -1q-18 12 -24.5 29t-11.5 37q-9 38 -6 76t13 76q17 68 48.5 126.5t86.5 103.5q29 25 63.5 37t73.5 3q15 -3 29 -11.5l27 -16.5q7 -3 11.5 -8.5t-0.5 -14.5q-5 -8 -10.5 -13.5t-15.5 -4.5
q-2 1 -3.5 1t-3.5 1q-20 11 -35.5 2.5t-28.5 -21.5q-51 -48 -82.5 -108t-48.5 -127q-8 -30 -10.5 -60t2.5 -60q2 -6 2 -11.5t2 -11.5q5 -17 9 -26t10 -10.5t14.5 4t22.5 17.5q32 28 49.5 64.5t31.5 74.5q17 46 17.5 91.5t-18.5 91.5q-9 18 10 18q24 -2 42 -12t25 -36
q11 -32 14 -63.5t-6 -62.5q-11 -50 -31 -94.5t-55 -80.5q-21 -21 -45 -34t-53 -16q-14 -2 -29 0.5t-29 10t-25.5 20.5t-17.5 32q-25 77 -13 155l4 24.5t4 23.5q1 6 1 12t1 13q9 2 7.5 8t-3.5 12q1 1 3 6q1 -2 4 -5q-5 0 -7 -1q-1 -5 -1.5 -11t-1.5 -11q-1 -6 -1.5 -12
t-0.5 -12zM232 657q-4 2 -9.5 3.5t-9.5 6.5l-33.5 38.5l-33.5 38.5q-7 8 -6 12t12 7q12 4 21 5.5t16 0t13.5 -7.5t14.5 -16l22 -25.5l22 -24.5q12 -14 10 -22t-21 -13q-6 -2 -18 -3z" />
    <glyph glyph-name="oacute" unicode="&#xf3;" horiz-adv-x="367" 
d="M50 310l-5.5 -5.5t-4.5 -7.5q-21 -76 -8 -156q3 -11 4.5 -22.5t2.5 -22.5l1 -1q-18 12 -24.5 29t-11.5 37q-9 38 -6 76t13 76q17 68 48.5 126.5t86.5 103.5q29 25 63.5 37t73.5 3q15 -3 29 -11.5l27 -16.5q7 -3 11.5 -8.5t-0.5 -14.5q-5 -8 -10.5 -13.5t-15.5 -4.5
q-2 1 -3.5 1t-3.5 1q-20 11 -35.5 2.5t-28.5 -21.5q-51 -48 -82.5 -108t-48.5 -127q-8 -30 -10.5 -60t2.5 -60q2 -6 2 -11.5t2 -11.5q5 -17 9 -26t10 -10.5t14.5 4t22.5 17.5q32 28 49.5 64.5t31.5 74.5q17 46 17.5 91.5t-18.5 91.5q-9 18 10 18q24 -2 42 -12t25 -36
q11 -32 14 -63.5t-6 -62.5q-11 -50 -31 -94.5t-55 -80.5q-21 -21 -45 -34t-53 -16q-14 -2 -29 0.5t-29 10t-25.5 20.5t-17.5 32q-25 77 -13 155l4 24.5t4 23.5q1 6 1 12t1 13q9 2 7.5 8t-3.5 12q1 1 3 6q1 -2 4 -5q-5 0 -7 -1q-1 -5 -1.5 -11t-1.5 -11q-1 -6 -1.5 -12
t-0.5 -12zM205 657q-12 1 -18 3q-19 5 -21 13t10 22l22 24.5l22 25.5q8 10 14.5 16t13.5 7.5t16 0t21 -5.5q11 -3 12 -7t-6 -12l-33.5 -38.5l-33.5 -38.5q-4 -5 -9.5 -6.5t-9.5 -3.5z" />
    <glyph glyph-name="ocircumflex" unicode="&#xf4;" horiz-adv-x="367" 
d="M50 310l-5.5 -5.5t-4.5 -7.5q-21 -76 -8 -156q3 -11 4.5 -22.5t2.5 -22.5l1 -1q-18 12 -24.5 29t-11.5 37q-9 38 -6 76t13 76q17 68 48.5 126.5t86.5 103.5q29 25 63.5 37t73.5 3q15 -3 29 -11.5l27 -16.5q7 -3 11.5 -8.5t-0.5 -14.5q-5 -8 -10.5 -13.5t-15.5 -4.5
q-2 1 -3.5 1t-3.5 1q-20 11 -35.5 2.5t-28.5 -21.5q-51 -48 -82.5 -108t-48.5 -127q-8 -30 -10.5 -60t2.5 -60q2 -6 2 -11.5t2 -11.5q5 -17 9 -26t10 -10.5t14.5 4t22.5 17.5q32 28 49.5 64.5t31.5 74.5q17 46 17.5 91.5t-18.5 91.5q-9 18 10 18q24 -2 42 -12t25 -36
q11 -32 14 -63.5t-6 -62.5q-11 -50 -31 -94.5t-55 -80.5q-21 -21 -45 -34t-53 -16q-14 -2 -29 0.5t-29 10t-25.5 20.5t-17.5 32q-25 77 -13 155l4 24.5t4 23.5q1 6 1 12t1 13q9 2 7.5 8t-3.5 12q1 1 3 6q1 -2 4 -5q-5 0 -7 -1q-1 -5 -1.5 -11t-1.5 -11q-1 -6 -1.5 -12
t-0.5 -12zM286 648q-3 2 -8 4t-10 7q-4 3 -7 7t-6 9q-13 17 -17.5 18t-16.5 -15q-8 -11 -19.5 -13.5l-21.5 -4.5q-4 -1 -8.5 2t-6.5 6q-1 2 0 7t3 7l27.5 31.5t28.5 29.5q18 18 44 13t38 -29q7 -11 11.5 -23t9.5 -24q11 -18 -11 -25q-7 -2 -13.5 -3.5t-16.5 -3.5z" />
    <glyph glyph-name="otilde" unicode="&#xf5;" horiz-adv-x="367" 
d="M50 310l-5.5 -5.5t-4.5 -7.5q-21 -76 -8 -156q3 -11 4.5 -22.5t2.5 -22.5l1 -1q-18 12 -24.5 29t-11.5 37q-9 38 -6 76t13 76q17 68 48.5 126.5t86.5 103.5q29 25 63.5 37t73.5 3q15 -3 29 -11.5l27 -16.5q7 -3 11.5 -8.5t-0.5 -14.5q-5 -8 -10.5 -13.5t-15.5 -4.5
q-2 1 -3.5 1t-3.5 1q-20 11 -35.5 2.5t-28.5 -21.5q-51 -48 -82.5 -108t-48.5 -127q-8 -30 -10.5 -60t2.5 -60q2 -6 2 -11.5t2 -11.5q5 -17 9 -26t10 -10.5t14.5 4t22.5 17.5q32 28 49.5 64.5t31.5 74.5q17 46 17.5 91.5t-18.5 91.5q-9 18 10 18q24 -2 42 -12t25 -36
q11 -32 14 -63.5t-6 -62.5q-11 -50 -31 -94.5t-55 -80.5q-21 -21 -45 -34t-53 -16q-14 -2 -29 0.5t-29 10t-25.5 20.5t-17.5 32q-25 77 -13 155l4 24.5t4 23.5q1 6 1 12t1 13q9 2 7.5 8t-3.5 12q1 1 3 6q1 -2 4 -5q-5 0 -7 -1q-1 -5 -1.5 -11t-1.5 -11q-1 -6 -1.5 -12
t-0.5 -12zM251 681q-37 0 -58 22q-8 6 -14.5 7.5t-11.5 -7.5q-7 -12 -17.5 -14t-21.5 -5q-2 -1 -6 0.5t-6 3.5t-1.5 6.5t2.5 7.5q7 15 21.5 25t32 13.5t34.5 0t30 -15.5q10 -9 16 -13.5t12 -5t12.5 3.5t18.5 12l12.5 8.5l13.5 9.5q4 2 8.5 5t9.5 4q8 2 14.5 0.5t14.5 -1.5
q-4 -6 -7 -12.5t-8 -11.5q-22 -20 -46.5 -32t-54.5 -11z" />
    <glyph glyph-name="odieresis" unicode="&#xf6;" horiz-adv-x="367" 
d="M50 310l-5.5 -5.5t-4.5 -7.5q-21 -76 -8 -156q3 -11 4.5 -22.5t2.5 -22.5l1 -1q-18 12 -24.5 29t-11.5 37q-9 38 -6 76t13 76q17 68 48.5 126.5t86.5 103.5q29 25 63.5 37t73.5 3q15 -3 29 -11.5l27 -16.5q7 -3 11.5 -8.5t-0.5 -14.5q-5 -8 -10.5 -13.5t-15.5 -4.5
q-2 1 -3.5 1t-3.5 1q-20 11 -35.5 2.5t-28.5 -21.5q-51 -48 -82.5 -108t-48.5 -127q-8 -30 -10.5 -60t2.5 -60q2 -6 2 -11.5t2 -11.5q5 -17 9 -26t10 -10.5t14.5 4t22.5 17.5q32 28 49.5 64.5t31.5 74.5q17 46 17.5 91.5t-18.5 91.5q-9 18 10 18q24 -2 42 -12t25 -36
q11 -32 14 -63.5t-6 -62.5q-11 -50 -31 -94.5t-55 -80.5q-21 -21 -45 -34t-53 -16q-14 -2 -29 0.5t-29 10t-25.5 20.5t-17.5 32q-25 77 -13 155l4 24.5t4 23.5q1 6 1 12t1 13q9 2 7.5 8t-3.5 12q1 1 3 6q1 -2 4 -5q-5 0 -7 -1q-1 -5 -1.5 -11t-1.5 -11q-1 -6 -1.5 -12
t-0.5 -12zM178 732q41 0 43 -29q1 -11 -4.5 -19t-16.5 -11q-15 -3 -30 -3q-31 1 -31 34q0 14 5 19t22 7q10 2 12 2zM284 732q41 0 43 -29q1 -11 -4.5 -19t-16.5 -11q-15 -3 -30 -3q-31 1 -31 34q0 14 5 19t22 7q10 2 12 2z" />
    <glyph glyph-name="ydieresis" unicode="&#xff;" horiz-adv-x="306" 
d="M23 66q4 32 5.5 55.5t5.5 46.5q1 9 8.5 15.5t17 9.5t20 2t16.5 -7q2 -9 0 -18q0 -22 -1 -43t-3 -42q-1 -12 2 -25q2 -10 6 -15q3 7 5 13q9 35 16.5 70.5l15.5 70.5q11 48 23.5 94t29.5 91q2 5 3.5 11l3.5 14q1 2 0.5 5t0.5 5q-4 -2 -6 -3.5t-4 -3.5l-37 -61.5l-38 -60.5
l-10.5 -19t-13.5 -14q-14 -5 -29 -5.5t-29 -1.5q-11 0 -18 7.5t-10 18.5q-2 9 -3 18t-1 18q-2 64 9 126.5t25 125.5q7 28 13 56.5t14 57.5q2 8 5 15.5t14 8.5q14 1 28.5 1t25.5 -13q3 -5 3.5 -11.5t-0.5 -11.5l-19 -98t-17 -96q-4 -25 -7.5 -50t-6.5 -51q0 -2 1.5 -3.5
t2.5 -3.5q0 1 1.5 1.5t2.5 2.5q2 5 9 13q35 63 76 120.5t86 114.5q14 17 25 35l23 36q7 11 12.5 17t11.5 8.5t14 1.5t21 -4q11 -3 21.5 -8l21.5 -10q12 -5 4 -16q-32 -44 -53.5 -92.5l-41.5 -97.5q-47 -113 -82 -229.5l-68 -234.5l-13.5 -44t-15.5 -45q-6 -16 -22.5 -26.5
t-33.5 -8.5q-18 2 -30.5 12t-16.5 30q-6 33 -10.5 66t-8.5 59zM225 536l1 1q1 3 2 5.5l3 7.5l4 2t4 3l9 9q-2 2 -2 4v-1q1 0 1 -3q-2 -2 -4.5 -3.5t-4.5 -3.5q-3 -5 -8 -7q-1 -4 -2 -7l-2 -6zM196 826q41 0 43 -29q1 -11 -4.5 -19t-16.5 -11q-15 -3 -30 -3q-31 1 -31 34
q0 14 5 19t22 7q10 2 12 2zM302 826q41 0 43 -29q1 -11 -4.5 -19t-16.5 -11q-15 -3 -30 -3q-31 1 -31 34q0 14 5 19t22 7q10 2 12 2z" />
    <glyph glyph-name="yacute" unicode="&#xfd;" horiz-adv-x="306" 
d="M23 66q4 32 5.5 55.5t5.5 46.5q1 9 8.5 15.5t17 9.5t20 2t16.5 -7q2 -9 0 -18q0 -22 -1 -43t-3 -42q-1 -12 2 -25q2 -10 6 -15q3 7 5 13q9 35 16.5 70.5l15.5 70.5q11 48 23.5 94t29.5 91q2 5 3.5 11l3.5 14q1 2 0.5 5t0.5 5q-4 -2 -6 -3.5t-4 -3.5l-37 -61.5l-38 -60.5
l-10.5 -19t-13.5 -14q-14 -5 -29 -5.5t-29 -1.5q-11 0 -18 7.5t-10 18.5q-2 9 -3 18t-1 18q-2 64 9 126.5t25 125.5q7 28 13 56.5t14 57.5q2 8 5 15.5t14 8.5q14 1 28.5 1t25.5 -13q3 -5 3.5 -11.5t-0.5 -11.5l-19 -98t-17 -96q-4 -25 -7.5 -50t-6.5 -51q0 -2 1.5 -3.5
t2.5 -3.5q0 1 1.5 1.5t2.5 2.5q2 5 9 13q35 63 76 120.5t86 114.5q14 17 25 35l23 36q7 11 12.5 17t11.5 8.5t14 1.5t21 -4q11 -3 21.5 -8l21.5 -10q12 -5 4 -16q-32 -44 -53.5 -92.5l-41.5 -97.5q-47 -113 -82 -229.5l-68 -234.5l-13.5 -44t-15.5 -45q-6 -16 -22.5 -26.5
t-33.5 -8.5q-18 2 -30.5 12t-16.5 30q-6 33 -10.5 66t-8.5 59zM225 536l1 1q1 3 2 5.5l3 7.5l4 2t4 3l9 9q-2 2 -2 4v-1q1 0 1 -3q-2 -2 -4.5 -3.5t-4.5 -3.5q-3 -5 -8 -7q-1 -4 -2 -7l-2 -6zM229 728q-12 1 -18 3q-19 5 -21 13t10 22l22 24.5l22 25.5q8 10 14.5 16
t13.5 7.5t16 0t21 -5.5q11 -3 12 -7t-6 -12l-33.5 -38.5l-33.5 -38.5q-4 -5 -9.5 -6.5t-9.5 -3.5z" />
    <glyph glyph-name="udieresis" unicode="&#xfc;" 
d="M444 589q15 -3 24 -24t5 -42l-14.5 -58t-12.5 -59l-23 -148.5t-21 -149.5q-4 -29 -4.5 -59.5t-2.5 -60.5q-1 -5 -2.5 -10.5t-3.5 -6.5q-17 -2 -33.5 -4.5t-32.5 -2.5q-13 1 -19.5 10.5t-6.5 22.5q-3 17 -5.5 35.5t-1.5 35.5q3 51 7 101l8 101q1 7 -1 14q-3 -2 -5.5 -4
t-5.5 -4l-39 -67l-39 -68q-6 -10 -12.5 -18.5t-12.5 -17.5q-24 -36 -58 -45t-73 -5q-41 5 -49 45q-5 19 -6.5 37t-3.5 37q2 60 14.5 116.5t27.5 113.5l16.5 59.5t18.5 58.5q9 23 30.5 37t45.5 10q9 -2 17 -6.5t16 -9.5q7 -5 7.5 -9t-1.5 -8t-5.5 -7.5t-4.5 -7.5
q-19 -63 -35.5 -126.5t-24.5 -128.5q-4 -23 -5.5 -45.5t-3.5 -45.5q-1 -3 1 -6t3 -7l6 4t5 4l26 39.5l26 39.5l68 104l67 105q11 18 19.5 37.5l16.5 39.5q14 35 36 47.5t57 6.5zM234 732q41 0 43 -29q1 -11 -4.5 -19t-16.5 -11q-15 -3 -30 -3q-31 1 -31 34q0 14 5 19t22 7
q10 2 12 2zM340 732q41 0 43 -29q1 -11 -4.5 -19t-16.5 -11q-15 -3 -30 -3q-31 1 -31 34q0 14 5 19t22 7q10 2 12 2z" />
    <glyph glyph-name="ucircumflex" unicode="&#xfb;" 
d="M444 589q15 -3 24 -24t5 -42l-14.5 -58t-12.5 -59l-23 -148.5t-21 -149.5q-4 -29 -4.5 -59.5t-2.5 -60.5q-1 -5 -2.5 -10.5t-3.5 -6.5q-17 -2 -33.5 -4.5t-32.5 -2.5q-13 1 -19.5 10.5t-6.5 22.5q-3 17 -5.5 35.5t-1.5 35.5q3 51 7 101l8 101q1 7 -1 14q-3 -2 -5.5 -4
t-5.5 -4l-39 -67l-39 -68q-6 -10 -12.5 -18.5t-12.5 -17.5q-24 -36 -58 -45t-73 -5q-41 5 -49 45q-5 19 -6.5 37t-3.5 37q2 60 14.5 116.5t27.5 113.5l16.5 59.5t18.5 58.5q9 23 30.5 37t45.5 10q9 -2 17 -6.5t16 -9.5q7 -5 7.5 -9t-1.5 -8t-5.5 -7.5t-4.5 -7.5
q-19 -63 -35.5 -126.5t-24.5 -128.5q-4 -23 -5.5 -45.5t-3.5 -45.5q-1 -3 1 -6t3 -7l6 4t5 4l26 39.5l26 39.5l68 104l67 105q11 18 19.5 37.5l16.5 39.5q14 35 36 47.5t57 6.5zM339 648q-3 2 -8 4t-10 7q-4 3 -7 7t-6 9q-13 17 -17.5 18t-16.5 -15q-8 -11 -19.5 -13.5
l-21.5 -4.5q-4 -1 -8.5 2t-6.5 6q-1 2 0 7t3 7l27.5 31.5t28.5 29.5q18 18 44 13t38 -29q7 -11 11.5 -23t9.5 -24q11 -18 -11 -25q-7 -2 -13.5 -3.5t-16.5 -3.5z" />
    <glyph glyph-name="uacute" unicode="&#xfa;" 
d="M444 589q15 -3 24 -24t5 -42l-14.5 -58t-12.5 -59l-23 -148.5t-21 -149.5q-4 -29 -4.5 -59.5t-2.5 -60.5q-1 -5 -2.5 -10.5t-3.5 -6.5q-17 -2 -33.5 -4.5t-32.5 -2.5q-13 1 -19.5 10.5t-6.5 22.5q-3 17 -5.5 35.5t-1.5 35.5q3 51 7 101l8 101q1 7 -1 14q-3 -2 -5.5 -4
t-5.5 -4l-39 -67l-39 -68q-6 -10 -12.5 -18.5t-12.5 -17.5q-24 -36 -58 -45t-73 -5q-41 5 -49 45q-5 19 -6.5 37t-3.5 37q2 60 14.5 116.5t27.5 113.5l16.5 59.5t18.5 58.5q9 23 30.5 37t45.5 10q9 -2 17 -6.5t16 -9.5q7 -5 7.5 -9t-1.5 -8t-5.5 -7.5t-4.5 -7.5
q-19 -63 -35.5 -126.5t-24.5 -128.5q-4 -23 -5.5 -45.5t-3.5 -45.5q-1 -3 1 -6t3 -7l6 4t5 4l26 39.5l26 39.5l68 104l67 105q11 18 19.5 37.5l16.5 39.5q14 35 36 47.5t57 6.5zM267 657q-12 1 -18 3q-19 5 -21 13t10 22l22 24.5l22 25.5q8 10 14.5 16t13.5 7.5t16 0
t21 -5.5q11 -3 12 -7t-6 -12l-33.5 -38.5l-33.5 -38.5q-4 -5 -9.5 -6.5t-9.5 -3.5z" />
    <glyph glyph-name="ugrave" unicode="&#xf9;" 
d="M444 589q15 -3 24 -24t5 -42l-14.5 -58t-12.5 -59l-23 -148.5t-21 -149.5q-4 -29 -4.5 -59.5t-2.5 -60.5q-1 -5 -2.5 -10.5t-3.5 -6.5q-17 -2 -33.5 -4.5t-32.5 -2.5q-13 1 -19.5 10.5t-6.5 22.5q-3 17 -5.5 35.5t-1.5 35.5q3 51 7 101l8 101q1 7 -1 14q-3 -2 -5.5 -4
t-5.5 -4l-39 -67l-39 -68q-6 -10 -12.5 -18.5t-12.5 -17.5q-24 -36 -58 -45t-73 -5q-41 5 -49 45q-5 19 -6.5 37t-3.5 37q2 60 14.5 116.5t27.5 113.5l16.5 59.5t18.5 58.5q9 23 30.5 37t45.5 10q9 -2 17 -6.5t16 -9.5q7 -5 7.5 -9t-1.5 -8t-5.5 -7.5t-4.5 -7.5
q-19 -63 -35.5 -126.5t-24.5 -128.5q-4 -23 -5.5 -45.5t-3.5 -45.5q-1 -3 1 -6t3 -7l6 4t5 4l26 39.5l26 39.5l68 104l67 105q11 18 19.5 37.5l16.5 39.5q14 35 36 47.5t57 6.5zM297 657q-4 2 -9.5 3.5t-9.5 6.5l-33.5 38.5l-33.5 38.5q-7 8 -6 12t12 7q12 4 21 5.5t16 0
t13.5 -7.5t14.5 -16l22 -25.5l22 -24.5q12 -14 10 -22t-21 -13q-6 -2 -18 -3z" />
    <glyph glyph-name="guilsinglleft" unicode="&#x2039;" horiz-adv-x="290" 
d="M229 151q-6 2 -12.5 3.5t-12.5 5.5q-36 23 -75 40.5l-80 34.5q-30 12 -32.5 25t19.5 36l83 85l82 85q12 11 23 8.5t22 -4.5q12 -2 16.5 -11t7.5 -17q2 -4 0 -8t-4 -6l-29 -38.5t-32 -38.5q-21 -25 -43.5 -49l-45.5 -49q-6 -8 -3 -11t10 -6q25 -12 49 -25l49 -26l9 -5.5
t9 -6.5q3 -4 4.5 -8.5t3.5 -9.5q-4 -1 -8 -1.5t-10 -2.5z" />
    <glyph glyph-name="guillemotleft" unicode="&#xab;" horiz-adv-x="462" 
d="M401 151q-6 2 -12.5 3.5t-12.5 5.5q-36 23 -75 40.5l-80 34.5q-30 12 -32.5 25t19.5 36l83 85l82 85q12 11 23 8.5t22 -4.5q12 -2 16.5 -11t7.5 -17q2 -4 0 -8t-4 -6l-29 -38.5t-32 -38.5q-21 -25 -43.5 -49l-45.5 -49q-6 -8 -3 -11t10 -6q25 -12 49 -25l49 -26l9 -5.5
t9 -6.5q3 -4 4.5 -8.5t3.5 -9.5q-4 -1 -8 -1.5t-10 -2.5zM230 151q-6 2 -12.5 3.5t-12.5 5.5q-36 23 -75 40.5l-80 34.5q-30 12 -32.5 25t19.5 36l83 85l82 85q12 11 23 8.5t22 -4.5q12 -2 16.5 -11t7.5 -17q2 -4 0 -8t-4 -6l-29 -38.5t-32 -38.5q-21 -25 -43.5 -49
l-45.5 -49q-6 -8 -3 -11t10 -6q25 -12 49 -25l49 -26l9 -5.5t9 -6.5q3 -4 4.5 -8.5t3.5 -9.5q-4 -1 -8 -1.5t-10 -2.5z" />
    <glyph glyph-name="guilsinglright" unicode="&#x203a;" horiz-adv-x="326" 
d="M137 468q5 -4 11 -7t11 -8q28 -33 60.5 -61l66.5 -55q26 -20 24.5 -33t-29.5 -29l-103.5 -58l-102.5 -59q-14 -8 -24 -2t-20 11q-11 5 -13 15t-2 19q-2 4 1.5 7t6.5 5l39 28.5l41 28.5q27 18 55.5 34.5l57.5 34.5q8 5 5.5 9t-7.5 9l-40 38l-40 39q-3 4 -6.5 7.5t-7.5 8.5
q-2 5 -2 10v10q4 -1 8 -1t10 -1z" />
    <glyph glyph-name="guillemotright" unicode="&#xbb;" horiz-adv-x="489" 
d="M137 468q5 -4 11 -7t11 -8q28 -33 60.5 -61l66.5 -55q26 -20 24.5 -33t-29.5 -29l-103.5 -58l-102.5 -59q-14 -8 -24 -2t-20 11q-11 5 -13 15t-2 19q-2 4 1.5 7t6.5 5l39 28.5l41 28.5q27 18 55.5 34.5l57.5 34.5q8 5 5.5 9t-7.5 9l-40 38l-40 39q-3 4 -6.5 7.5t-7.5 8.5
q-2 5 -2 10v10q4 -1 8 -1t10 -1zM293 440q5 -4 11 -7t11 -8q28 -33 60.5 -61l66.5 -55q26 -20 24.5 -33t-29.5 -29l-103.5 -58l-102.5 -59q-14 -8 -24 -2t-20 11q-11 5 -13 15t-2 19q-2 4 1.5 7t6.5 5l39 28.5l41 28.5q27 18 55.5 34.5l57.5 34.5q8 5 5.5 9t-7.5 9l-40 38
l-40 39q-3 4 -6.5 7.5t-7.5 8.5q-2 5 -2 10v10q4 -1 8 -1t10 -1z" />
    <glyph glyph-name="caron" unicode="&#x2c7;" horiz-adv-x="217" 
d="M68 767q3 -2 8 -4t10 -7q4 -3 7 -7t6 -9q13 -17 17.5 -18t16.5 15q8 11 19.5 13.5l21.5 4.5q4 1 8.5 -2t6.5 -6q1 -2 0 -7t-3 -7l-27.5 -31.5t-28.5 -29.5q-18 -18 -44 -13t-38 29q-7 11 -11.5 23t-9.5 24q-11 18 11 25q7 2 13.5 3.5t16.5 3.5z" />
    <glyph glyph-name="Scaron" unicode="&#x160;" horiz-adv-x="425" 
d="M241 523q7 12 12.5 24l10.5 23q3 8 3.5 17t1.5 17l-65 -78t-56 -84q-8 -17 -6 -21.5t21 -5.5q35 -2 69 -8.5t66 -20.5q30 -14 49.5 -36.5t31.5 -49.5q14 -26 8 -53.5t-21 -51.5q-11 -19 -25 -36.5t-27 -35.5v1v-1l-1 -1q-1 -1 -1 -2q0 -2 1 -2.5t1 -1.5t1 -1h-1
q-89 -66 -192 -105q-26 -11 -53 -14t-54 7q-5 3 -8.5 6.5t-7.5 6.5q3 4 5.5 8.5t7.5 6.5q5 4 11 5t12 3q9 2 12 6t-11 10q0 1 1.5 5t3.5 6q19 13 38.5 24t36.5 24l64 49.5t60 51.5q17 15 27 35l21 40q8 10 6 20q-1 5 -5 9t-6 10q-4 -4 -8.5 -7t-5.5 -7q-10 -35 -31.5 -62
t-47.5 -50q-21 -17 -43.5 -33.5l-45.5 -33.5q-4 -2 -7.5 -3.5t-7.5 -3.5q3 5 5.5 8.5t6.5 7.5l23 17t22 19l39.5 37t36.5 40q11 11 18.5 26.5t13.5 30.5q7 18 3 23.5t-23 6.5q-18 0 -36.5 -1t-36.5 -3q-25 -1 -49 -2.5t-47 -0.5q-26 1 -39 18.5t-3 41.5l28 63t32 61
q32 52 69 99.5t82 89.5q24 23 49.5 32.5t57.5 -5.5q17 -7 32 -14t30 -15q25 -14 17 -43q-17 -47 -37 -92.5t-51 -85.5q-7 -9 -19 -13.5t-24.5 -3.5t-24 6t-16.5 15q-13 15 -4 31zM62 51q4 3 8.5 5t9.5 5q-3 1 -4 2t-2 1q-9 -6 -17 -10q1 -3 5 -3zM104 74q1 0 1 -1.5t2 -1.5
v3h-3zM210 379q-8 -2 -13 -3q4 -1 7 -1.5t6 -0.5t5 1t4 1q-2 1 -4 1.5t-5 1.5zM162 381q-3 0 -7.5 -1.5t-8.5 -3.5l12 -3q4 1 8 1.5t7 1.5q-2 2 -4.5 3.5t-6.5 1.5zM270 605l-1 -1q1 0 1 -1v2zM394 190h-1v1zM381 167q-2 9 -1 15.5t13 7.5l-6 -12t-6 -11zM327 122h-2
q1 0 1 1zM325 122q-2 -2 -5 -3.5t-6 -2.5v7q3 0 6 -0.5t5 -0.5zM334 128q-4 -4 -7 -6l-1 1q6 4 8 6v-1zM342 136q-2 -2 -4 -3.5t-4 -4.5v1q1 3 7 7h1zM347 145q-2 -2 -3 -4.5t-2 -4.5h-1q2 3 2.5 5.5t2.5 4.5zM362 157q-1 -2 -6 -7q-2 -2 -4.5 -2.5t-4.5 -2.5l-1 1q5 1 9 5
v-1v1q4 3 7 7v-1zM371 163q-2 -2 -4.5 -3t-4.5 -3v1q2 2 4 3t4 3zM381 167q-2 -1 -5 -2t-5 -2l-1 1q2 0 5.5 1t5.5 2zM287 967q3 -2 8 -4t10 -7q4 -3 7 -7t6 -9q13 -17 17.5 -18t16.5 15q8 11 19.5 13.5l21.5 4.5q4 1 8.5 -2t6.5 -6q1 -2 0 -7t-3 -7l-27.5 -31.5
t-28.5 -29.5q-18 -18 -44 -13t-38 29q-7 11 -11.5 23t-9.5 24q-11 18 11 25q7 2 13.5 3.5t16.5 3.5z" />
    </font>
</defs>
</svg>
